<?xml version="1.0" standalone="no"?>
<!DOCTYPE svg PUBLIC "-//W3C//DTD SVG 1.1//EN" "http://www.w3.org/Graphics/SVG/1.1/DTD/svg11.dtd" >
<svg xmlns="http://www.w3.org/2000/svg">
<metadata>Generated by IcoMoon</metadata>
<defs>
<font id="ico-digisalad" horiz-adv-x="1024">
<font-face units-per-em="1024" ascent="960" descent="-64" />
<missing-glyph horiz-adv-x="1024" />
<glyph unicode="&#x20;" horiz-adv-x="512" d="" />
<glyph unicode="&#xe900;" glyph-name="DOC" d="M853.333 653.333v-557.333c0-31.117-12.203-60.962-33.92-82.965-21.717-22.007-51.174-34.368-81.89-34.368h-57.903v58.667h57.903c15.36 0 30.089 6.182 40.947 17.182 10.859 11.004 16.96 25.924 16.96 41.485v557.333h-115.81c-23.036 0-45.129 9.271-61.419 25.775s-25.438 38.886-25.438 62.225v117.333h-318.478c-15.357 0-30.086-6.181-40.945-17.183s-16.96-25.924-16.96-41.484v-528h-57.905v528c0 31.119 12.201 60.963 33.92 82.967s51.175 34.366 81.89 34.366h318.478l260.57-264zM618.667 139.422h-38.686c-6.221 27.84-21.764 40.435-48.013 40.435-31.778 0-49.050-19.887-49.050-69.274v-29.167c0-48.725 17.271-69.274 49.050-69.274 27.285 0 41.792 12.595 48.013 40.435h38.34c-7.945-51.375-39.031-73.911-86.353-73.911-53.197 0-89.118 30.827-89.118 102.75v29.167c0 71.923 35.921 102.75 89.118 102.75 47.322 0 78.754-24.196 86.699-73.911zM469.013 187.473c-15.134-16.171-24.034-41.259-24.034-76.89v-29.167c0-35.631 8.9-60.719 24.034-76.89 15.121-16.149 36.762-23.727 62.95-23.727 23.334 0 42.402 5.555 56.589 17.207 13.713 11.26 23.113 28.416 27.255 52.437h-34.133c-3.209-13.338-8.452-23.39-16.422-30.153-8.32-7.053-19.319-10.283-33.289-10.283-16.393 0-29.372 5.333-38.157 17.233-8.687 11.767-13.026 29.632-13.026 54.174v29.167c0 24.87 4.335 42.739 13.030 54.43 8.794 11.823 21.781 16.977 38.153 16.977 13.47 0 24.452-3.234 32.887-10.274 8.085-6.746 13.585-16.789 16.819-30.161h34.47c-4.156 23.215-13.628 40.367-27.422 51.823-14.289 11.87-33.455 17.822-56.755 17.822-26.189 0-47.829-7.578-62.95-23.727zM465.899 190.387c16.145 17.246 39.057 25.079 66.065 25.079 24.021 0 44.237-6.144 59.482-18.803 15.249-12.668 25.293-31.663 29.325-56.909l0.397-2.466h-42.897l-0.375 1.668c-3.042 13.632-8.307 23.253-15.778 29.483-7.454 6.221-17.37 9.284-30.153 9.284-15.407 0-26.944-4.791-34.731-15.258-7.885-10.598-12.186-27.366-12.186-51.883v-29.167c0-24.179 4.301-40.951 12.19-51.639 7.795-10.56 19.341-15.501 34.726-15.501 13.321 0 23.219 3.072 30.528 9.271 7.33 6.221 12.352 15.829 15.403 29.495l0.375 1.668h42.539l-0.38-2.458c-4.032-26.061-13.978-45.073-29.167-57.545-15.172-12.463-35.311-18.176-59.298-18.176-27.008 0-49.92 7.834-66.065 25.079-16.119 17.22-25.186 43.511-25.186 79.804v29.167c0 36.292 9.067 62.583 25.186 79.804zM423.406 81.417c0-71.923-35.923-102.75-89.463-102.75-53.194 0-89.117 30.827-89.117 102.75v29.167c0 71.923 35.923 102.75 89.117 102.75 53.54 0 89.463-30.827 89.463-102.75v-29.167zM284.894 110.583v-29.167c0-49.387 17.271-69.274 49.049-69.274s49.395 19.887 49.395 69.274v29.167c0 49.387-17.616 69.274-49.395 69.274s-49.049-19.887-49.049-69.274zM270.994 187.473c-15.137-16.171-24.035-41.259-24.035-76.89v-29.167c0-35.631 8.898-60.719 24.035-76.89 15.118-16.149 36.762-23.727 62.949-23.727 26.364 0 48.094 7.582 63.254 23.731 15.179 16.166 24.076 41.254 24.076 76.885v29.167c0 35.631-8.897 60.719-24.076 76.885-15.16 16.149-36.89 23.731-63.254 23.731-26.188 0-47.831-7.578-62.949-23.727zM267.88 190.387c16.142 17.246 39.057 25.079 66.064 25.079 27.176 0 50.178-7.834 66.365-25.075 16.168-17.225 25.232-43.516 25.232-79.808v-29.167c0-36.292-9.064-62.583-25.232-79.808-16.187-17.242-39.188-25.075-66.365-25.075-27.006 0-49.922 7.834-66.064 25.079-16.123 17.22-25.187 43.511-25.187 79.804v29.167c0 36.292 9.064 62.583 25.187 79.804zM295.791 165.013c8.794 11.823 21.781 16.977 38.153 16.977s29.439-5.15 38.32-16.969c8.785-11.691 13.208-29.564 13.208-54.438v-29.167c0-24.875-4.423-42.748-13.208-54.438-8.881-11.814-21.949-16.969-38.32-16.969s-29.359 5.154-38.153 16.977c-8.695 11.691-13.030 29.559-13.030 54.43v29.167c0 24.87 4.335 42.739 13.030 54.43zM299.214 162.466c-7.885-10.598-12.186-27.366-12.186-51.883v-29.167c0-24.516 4.301-41.284 12.186-51.883 7.785-10.466 19.323-15.258 34.729-15.258 15.408 0 27.037 4.791 34.909 15.266 7.968 10.603 12.352 27.362 12.352 51.874v29.167c0 24.512-4.385 41.276-12.352 51.874-7.872 10.475-19.501 15.266-34.909 15.266-15.406 0-26.944-4.791-34.729-15.258zM135.948-18.351h-80.482v228.702h80.482c53.539 0 89.463-27.511 89.463-100.762v-27.179c0-73.25-35.924-100.762-89.463-100.762zM135.948 14.797c34.196 0 49.395 20.548 49.395 67.614v27.179c0 47.066-15.199 67.285-49.395 67.285h-40.414v-162.078h40.414zM53.333 212.484h82.615c27.113 0 50.123-6.967 66.334-23.552 16.203-16.576 25.262-42.398 25.262-79.343v-27.179c0-36.945-9.059-62.763-25.262-79.339-16.211-16.585-39.221-23.556-66.334-23.556h-82.615v232.969zM57.6 208.218v-224.435h78.349c26.426 0 48.148 6.788 63.283 22.272 15.144 15.492 24.047 40.051 24.047 76.356v27.179c0 36.309-8.902 60.868-24.047 76.361-15.135 15.484-36.857 22.268-63.283 22.268h-78.349zM93.402 179.008h42.547c17.544 0 30.641-5.214 39.238-16.858 8.485-11.494 12.291-28.885 12.291-52.561v-27.179c0-23.676-3.806-41.143-12.286-52.719-8.591-11.725-21.687-17.028-39.242-17.028h-42.547v166.345zM97.668 174.741v-157.811h38.281c16.641 0 28.244 4.971 35.8 15.283 7.668 10.466 11.462 26.807 11.462 50.197v27.179c0 23.39-3.794 39.646-11.457 50.027-7.552 10.231-19.152 15.125-35.805 15.125h-38.281z" />
<glyph unicode="&#xe901;" glyph-name="tag" d="M512 810.667c-200.295 0-362.667-162.371-362.667-362.667s162.371-362.667 362.667-362.667c46.281 0 90.466 8.653 131.081 24.401 16.478 6.391 35.012-1.788 41.404-18.261 6.391-16.478-1.788-35.017-18.266-41.408-47.872-18.564-99.895-28.732-154.219-28.732-235.642 0-426.667 191.027-426.667 426.667 0 235.642 191.025 426.667 426.667 426.667 235.639 0 426.667-191.025 426.667-426.667 0-80.525-22.34-155.93-61.175-220.25-5.466-9.054-11.977-16.917-18.803-23.74-96.738-96.649-259.959-8.371-232.026 125.495l67.081 321.469c3.61 17.3 20.561 28.399 37.862 24.788s28.399-20.561 24.789-37.862l-67.081-321.469c-14.946-71.625 72.384-118.857 124.143-67.145 3.84 3.84 6.921 7.684 9.25 11.541 32.977 54.618 51.959 118.63 51.959 187.17 0 200.295-162.372 362.667-362.667 362.667zM280.695 524.646c19.821 104.043 110.787 179.314 216.7 179.314 138.385 0 242.598-125.94 216.7-261.883l-13.474-70.724c-19.819-104.043-110.784-179.315-216.7-179.315-138.385 0-242.598 125.939-216.699 261.884l13.474 70.724zM497.395 639.961c-75.185 0-139.76-53.434-153.83-127.291l-13.474-70.729c-18.384-96.499 55.594-185.903 153.83-185.903 75.187 0 139.763 53.436 153.83 127.292l13.474 70.729c18.385 96.5-55.59 185.902-153.83 185.902z" />
<glyph unicode="&#xe902;" glyph-name="Dot-Horizontal" d="M202.667 501.312c-29.455 0-53.333-23.876-53.333-53.333 0-29.453 23.878-53.333 53.333-53.333s53.333 23.881 53.333 53.333c0 29.457-23.878 53.333-53.333 53.333zM85.333 447.979c0 64.802 52.532 117.335 117.333 117.335s117.333-52.533 117.333-117.335c0-64.798-52.532-117.333-117.333-117.333s-117.333 52.535-117.333 117.333zM512 501.312c-29.457 0-53.333-23.876-53.333-53.333 0-29.453 23.876-53.333 53.333-53.333s53.333 23.881 53.333 53.333c0 29.457-23.876 53.333-53.333 53.333zM394.667 447.979c0 64.802 52.531 117.335 117.333 117.335s117.333-52.533 117.333-117.335c0-64.798-52.531-117.333-117.333-117.333s-117.333 52.535-117.333 117.333zM821.333 501.312c-29.457 0-53.333-23.876-53.333-53.333 0-29.453 23.876-53.333 53.333-53.333s53.333 23.881 53.333 53.333c0 29.457-23.876 53.333-53.333 53.333zM704 447.979c0 64.802 52.531 117.335 117.333 117.335s117.333-52.533 117.333-117.335c0-64.798-52.531-117.333-117.333-117.333s-117.333 52.535-117.333 117.333z" />
<glyph unicode="&#xe903;" glyph-name="Dot-Vertical" d="M512 810.647c-29.457 0-53.333-23.878-53.333-53.333s23.876-53.333 53.333-53.333c29.457 0 53.333 23.878 53.333 53.333s-23.876 53.333-53.333 53.333zM394.667 757.314c0 64.802 52.531 117.333 117.333 117.333s117.333-52.532 117.333-117.333c0-64.801-52.531-117.333-117.333-117.333s-117.333 52.532-117.333 117.333zM512 501.316c-29.457 0-53.333-23.881-53.333-53.333 0-29.457 23.876-53.333 53.333-53.333s53.333 23.876 53.333 53.333c0 29.453-23.876 53.333-53.333 53.333zM394.667 447.983c0 64.802 52.531 117.332 117.333 117.332s117.333-52.53 117.333-117.332c0-64.802-52.531-117.333-117.333-117.333s-117.333 52.531-117.333 117.333zM512 191.983c-29.457 0-53.333-23.881-53.333-53.333 0-29.457 23.876-53.333 53.333-53.333s53.333 23.876 53.333 53.333c0 29.453-23.876 53.333-53.333 53.333zM394.667 138.65c0 64.802 52.531 117.333 117.333 117.333s117.333-52.531 117.333-117.333c0-64.802-52.531-117.333-117.333-117.333s-117.333 52.531-117.333 117.333z" />
<glyph unicode="&#xe904;" glyph-name="archieve" d="M202.583 589.694v-473.359c0-5.892 4.776-10.667 10.667-10.667h597.404c5.892 0 10.667 4.774 10.667 10.667v473.359h64v-473.359c0-41.237-33.429-74.667-74.667-74.667h-597.404c-41.237 0-74.667 33.429-74.667 74.667v473.359h64zM85.333 800.999c0 29.455 23.878 53.333 53.333 53.333h746.667c29.457 0 53.333-23.878 53.333-53.333v-170.667c0-29.455-23.876-53.333-53.333-53.333h-746.667c-29.455 0-53.333 23.878-53.333 53.333v170.667zM149.333 790.332v-149.333h725.333v149.333h-725.333zM389.833 412.847c17.673 0 32-14.327 32-32v-38.959h180.355v38.959c0 17.673 14.327 32 32 32s32-14.327 32-32v-70.959c0-17.673-14.327-32-32-32h-244.355c-17.673 0-32 14.327-32 32v70.959c0 17.673 14.327 32 32 32z" />
<glyph unicode="&#xe905;" glyph-name="Arrow-Down" d="M512 821.333c17.673 0 32-14.327 32-32v-640c0-17.673-14.327-32-32-32s-32 14.327-32 32v640c0 17.673 14.327 32 32 32zM278.182 387.251c13.577 11.315 33.755 9.481 45.069-4.1l188.75-226.5 188.753 226.5c11.311 13.581 31.492 15.411 45.069 4.1 13.577-11.315 15.411-31.492 4.096-45.069l-206.78-248.137c-16.205-19.443-46.071-19.443-62.276 0l-206.778 248.137c-11.314 13.577-9.48 33.754 4.097 45.069z" />
<glyph unicode="&#xe906;" glyph-name="Arrow-Left" d="M885.333 448c0-17.673-14.327-32-32-32h-640c-17.673 0-32 14.327-32 32s14.327 32 32 32h640c17.673 0 32-14.327 32-32zM451.251 681.82c11.315-13.577 9.481-33.755-4.096-45.069l-226.502-188.751 226.502-188.749c13.577-11.315 15.411-31.492 4.096-45.069s-31.493-15.411-45.070-4.1l-248.134 206.78c-19.446 16.205-19.446 46.071 0 62.276l248.134 206.779c13.577 11.314 33.754 9.48 45.070-4.097z" />
<glyph unicode="&#xe907;" glyph-name="Arrow-Right" d="M138.667 448c0 17.673 14.327 32 32 32h640c17.673 0 32-14.327 32-32s-14.327-32-32-32h-640c-17.673 0-32 14.327-32 32zM803.345 448l-226.5-188.749c-13.577-11.315-15.411-31.492-4.096-45.069s31.492-15.411 45.069-4.1l248.132 206.78c19.447 16.205 19.447 46.071 0 62.276l-248.132 206.779c-13.577 11.314-33.754 9.48-45.069-4.097s-9.481-33.755 4.096-45.069l226.5-188.751z" />
<glyph unicode="&#xe908;" glyph-name="Arrow-Up" d="M512 778.667c17.673 0 32-14.327 32-32v-640c0-17.673-14.327-32-32-32s-32 14.327-32 32v640c0 17.673 14.327 32 32 32zM512 739.348l188.753-226.499c11.311-13.577 31.492-15.411 45.069-4.1 13.577 11.315 15.411 31.494 4.096 45.071l-206.78 248.134c-16.205 19.446-46.071 19.446-62.276 0l-206.778-248.134c-11.314-13.577-9.48-33.756 4.097-45.071 13.577-11.311 33.755-9.476 45.069 4.1l188.75 226.499z" />
<glyph unicode="&#xe909;" glyph-name="attachment" d="M644.053 805.3c50.705 57.271 138.206 62.668 195.567 12.062l52.019-45.899c57.429-50.668 62.908-138.295 12.241-195.722l-422.012-478.308c-74.051-83.934-202.123-91.942-286.054-17.89l-40.646 35.861c-83.932 74.052-91.94 202.125-17.888 286.059l296.080 335.58c11.695 13.252 31.915 14.517 45.167 2.825s14.519-31.915 2.825-45.167l-296.081-335.58c-50.668-57.429-45.188-145.058 12.239-195.725l-21.171-23.996zM797.278 769.371c-30.886 27.25-78.003 24.344-105.306-6.495l-392.225-443.025c-11.729-13.248-10.48-33.502 2.788-45.21l31.166-27.494c13.23-11.674 33.411-10.436 45.115 2.765l311.991 351.881c11.721 13.224 31.949 14.439 45.171 2.714s14.438-31.95 2.714-45.173l-311.987-351.879c-35.115-39.603-95.657-43.315-135.346-8.299l-31.166 27.499c-39.805 35.119-43.552 95.876-8.365 135.62l392.225 443.026zM797.278 769.371v0zM849.297 723.472c30.925-27.282 33.873-74.467 6.592-105.389l-6.592 105.389zM855.889 618.083v0zM197.511 163.396l40.646-35.861c57.427-50.667 145.055-45.188 195.721 12.241z" />
<glyph unicode="&#xe90a;" glyph-name="bar-code" d="M181.333 757.353c-17.673 0-32-14.327-32-32v-149.345c0-17.673-14.327-32-32-32s-32 14.327-32 32v149.345c0 53.019 42.981 96 96 96h182.667c17.673 0 32-14.327 32-32s-14.327-32-32-32h-182.667zM628.002 789.353c0 17.673 14.323 32 32 32h182.665c53.018 0 96-42.981 96-96v-149.345c0-17.673-14.327-32-32-32s-32 14.327-32 32v149.345c0 17.673-14.327 32-32 32h-182.665c-17.677 0-32 14.327-32 32zM117.333 351.991c17.673 0 32-14.323 32-32v-149.342c0-17.673 14.327-32 32-32h182.667c17.673 0 32-14.327 32-32s-14.327-32-32-32h-182.667c-53.019 0-96 42.978-96 96v149.342c0 17.677 14.327 32 32 32zM906.667 351.991c17.673 0 32-14.323 32-32v-149.342c0-53.022-42.982-96-96-96h-182.665c-17.677 0-32 14.327-32 32s14.323 32 32 32h182.665c17.673 0 32 14.327 32 32v149.342c0 17.677 14.327 32 32 32zM247.667 671.348c17.673 0 32-14.327 32-32v-382.695c0-17.673-14.327-32-32-32s-32 14.327-32 32v382.695c0 17.673 14.327 32 32 32zM640 671.348c17.673 0 32-14.327 32-32v-272.939c0-17.673-14.327-32-32-32s-32 14.327-32 32v272.939c0 17.673 14.327 32 32 32zM512 671.348c17.673 0 32-14.327 32-32v-68.234c0-17.673-14.327-32-32-32s-32 14.327-32 32v68.234c0 17.673 14.327 32 32 32zM512 466.645c17.673 0 32-14.327 32-32v-68.237c0-17.673-14.327-32-32-32s-32 14.327-32 32v68.237c0 17.673 14.327 32 32 32zM379.833 671.007c17.673 0 32-14.327 32-32v-272.253c0-17.673-14.327-32-32-32s-32 14.327-32 32v272.253c0 17.673 14.327 32 32 32zM776.333 670.868c17.673 0 32-14.327 32-32v-60.67c0-17.673-14.327-32-32-32s-32 14.327-32 32v60.67c0 17.673 14.327 32 32 32zM776.333 480c17.673 0 32-14.327 32-32v-190.865c0-17.673-14.327-32-32-32s-32 14.327-32 32v190.865c0 17.673 14.327 32 32 32z" />
<glyph unicode="&#xe90b;" glyph-name="barcode-scan" d="M181.333 757.353c-17.673 0-32-14.327-32-32v-149.345c0-17.673-14.327-32-32-32s-32 14.327-32 32v149.345c0 53.019 42.981 96 96 96h182.667c17.673 0 32-14.327 32-32s-14.327-32-32-32h-182.667zM628.002 789.353c0 17.673 14.323 32 32 32h182.665c53.018 0 96-42.981 96-96v-149.345c0-17.673-14.327-32-32-32s-32 14.327-32 32v149.345c0 17.673-14.327 32-32 32h-182.665c-17.677 0-32 14.327-32 32zM117.333 351.991c17.673 0 32-14.323 32-32v-149.342c0-17.673 14.327-32 32-32h182.667c17.673 0 32-14.327 32-32s-14.327-32-32-32h-182.667c-53.019 0-96 42.978-96 96v149.342c0 17.677 14.327 32 32 32zM906.667 351.991c17.673 0 32-14.323 32-32v-149.342c0-53.022-42.982-96-96-96h-182.665c-17.677 0-32 14.327-32 32s14.323 32 32 32h182.665c17.673 0 32 14.327 32 32v149.342c0 17.677 14.327 32 32 32zM247.667 671.348c17.673 0 32-14.327 32-32v-191.348c0-17.673-14.327-32-32-32s-32 14.327-32 32v191.348c0 17.673 14.327 32 32 32zM247.667 351.834c17.673 0 32-14.327 32-32v-63.181c0-17.673-14.327-32-32-32s-32 14.327-32 32v63.181c0 17.673 14.327 32 32 32zM640 671.348c17.673 0 32-14.327 32-32v-183.156c0-17.673-14.327-32-32-32s-32 14.327-32 32v183.156c0 17.673 14.327 32 32 32zM512 671.348c17.673 0 32-14.327 32-32v-182.264c0-17.673-14.327-32-32-32s-32 14.327-32 32v182.264c0 17.673 14.327 32 32 32zM512 351.667c17.673 0 32-14.327 32-32v-62.532c0-17.673-14.327-32-32-32s-32 14.327-32 32v62.532c0 17.673 14.327 32 32 32zM379.833 671.007c17.673 0 32-14.327 32-32v-190.938c0-17.673-14.327-32-32-32s-32 14.327-32 32v190.938c0 17.673 14.327 32 32 32zM379.833 352c17.673 0 32-14.327 32-32v-10.5c0-17.673-14.327-32-32-32s-32 14.327-32 32v10.5c0 17.673 14.327 32 32 32zM776.333 670.868c17.673 0 32-14.327 32-32v-60.67c0-17.673-14.327-32-32-32s-32 14.327-32 32v60.67c0 17.673 14.327 32 32 32zM776.333 351.667c17.673 0 32-14.327 32-32v-62.532c0-17.673-14.327-32-32-32s-32 14.327-32 32v62.532c0 17.673 14.327 32 32 32zM96 448c0 17.673 14.327 32 32 32h768c17.673 0 32-14.327 32-32s-14.327-32-32-32h-768c-17.673 0-32 14.327-32 32z" />
<glyph unicode="&#xe90c;" glyph-name="bell-silent" d="M293.393 684.562c51.348 63.831 130.209 104.772 218.612 104.772 154.876 0 280.431-125.553 280.431-280.432v-119.616c53.077-11.238 92.907-58.359 92.907-114.786v-23.479c0-50.957-32.465-94.251-77.739-110.477-16.64-5.961-34.961 2.688-40.922 19.328-5.965 16.636 2.688 34.957 19.324 40.917 20.646 7.403 35.337 27.14 35.337 50.231v23.479c0 29.457-23.881 53.333-53.333 53.333h-7.573c-17.673 0-32 14.327-32 32v149.069c0 119.533-96.9 216.432-216.431 216.432-68.203 0-129.022-31.509-168.744-80.887-11.078-13.771-31.221-15.953-44.991-4.876s-15.954 31.221-4.876 44.992zM265.083 551.162c17.658-0.719 31.391-15.617 30.671-33.274-0.121-2.978-0.183-5.973-0.183-8.986v-149.069c0-17.673-14.327-32-32-32h-7.572c-29.455 0-53.333-23.876-53.333-53.333v-23.479c0-29.457 23.878-53.333 53.333-53.333h402.334c10.261 0 19.904-4.924 25.92-13.239 6.020-8.311 7.684-19.008 4.476-28.757l-0.064-0.201-0.154-0.461-0.542-1.617c-0.461-1.348-1.105-3.226-1.865-5.359-1.442-4.058-3.571-9.835-5.713-14.673-10.688-24.149-22.187-41.442-39.287-58.543-16.956-16.96-37.090-30.409-59.247-39.586s-45.905-13.905-69.888-13.905c-23.983 0-47.727 4.727-69.884 13.905-22.159 9.178-42.291 22.626-59.249 39.586-16.857 16.858-30.249 36.851-39.422 58.85h-87.415c-64.801 0-117.333 52.531-117.333 117.333v23.479c0 56.427 39.828 103.548 92.905 114.786v119.616c0 3.883 0.079 7.744 0.236 11.588 0.719 17.658 15.617 31.391 33.275 30.672zM416.412 133.687c3.537-4.809 7.44-9.357 11.68-13.594 11.017-11.017 24.094-19.755 38.485-25.715s29.815-9.033 45.393-9.033c15.578 0 31.006 3.072 45.397 9.033s27.469 14.699 38.481 25.715c4.425 4.42 8.247 8.777 11.759 13.594h-191.195zM512 810.553c-18.317 0-33.165-14.849-33.165-33.167v-12.891c0-17.673-14.327-32-32-32-17.677 0-32.002 14.327-32.002 32v12.891c0 53.664 43.505 97.167 97.167 97.167s97.165-43.503 97.165-97.167v-9.386c0-17.673-14.323-32-32-32-17.673 0-32 14.327-32 32v9.386c0 18.318-14.848 33.167-33.165 33.167zM148.039 811.962c12.497 12.497 32.758 12.497 45.255 0l703.999-703.998c12.497-12.497 12.497-32.759 0-45.257s-32.755-12.497-45.252 0l-704.001 704c-12.497 12.497-12.497 32.758 0 45.255z" />
<glyph unicode="&#xe90d;" glyph-name="bell" d="M402.397 158.562c5.961-14.391 14.699-27.469 25.712-38.485 11.017-11.012 24.094-19.75 38.485-25.711 14.391-5.965 29.82-9.033 45.397-9.033s31.002 3.068 45.393 9.033c14.391 5.961 27.469 14.699 38.485 25.711 11.012 11.017 19.75 24.094 25.715 38.485l59.127-24.491c-9.178-22.157-22.63-42.291-39.59-59.247-16.956-16.96-37.090-30.413-59.247-39.59s-45.901-13.901-69.884-13.901c-23.983 0-47.731 4.723-69.888 13.901s-42.289 22.63-59.247 39.59c-16.958 16.956-30.41 37.090-39.588 59.247l59.128 24.491zM231.572 508.902c0 154.879 125.553 280.432 280.433 280.432 154.876 0 280.431-125.553 280.431-280.432v-119.616c53.077-11.238 92.907-58.359 92.907-114.786v-23.479c0-64.802-52.535-117.333-117.333-117.333h-512.009c-64.801 0-117.333 52.531-117.333 117.333v23.479c0 56.427 39.828 103.548 92.905 114.786v119.616zM512.004 725.335c-119.533 0-216.433-96.899-216.433-216.432v-149.069c0-17.673-14.327-32-32-32h-7.572c-29.455 0-53.333-23.876-53.333-53.333v-23.479c0-29.457 23.878-53.333 53.333-53.333h512.009c29.453 0 53.333 23.876 53.333 53.333v23.479c0 29.457-23.881 53.333-53.333 53.333h-7.573c-17.673 0-32 14.327-32 32v149.069c0 119.533-96.9 216.432-216.431 216.432zM512 810.553c-18.317 0-33.165-14.849-33.165-33.167v-12.891c0-17.673-14.327-32-32-32-17.677 0-32.002 14.327-32.002 32v12.891c0 53.664 43.505 97.167 97.167 97.167s97.165-43.503 97.165-97.167v-9.386c0-17.673-14.323-32-32-32-17.673 0-32 14.327-32 32v9.386c0 18.318-14.848 33.167-33.165 33.167z" />
<glyph unicode="&#xe90e;" glyph-name="book" d="M512 739.721c104.422 99.508 223.595 132.517 366.857 122.586 28.228-1.957 49.143-25.591 49.143-52.918v-631.418c0-30.413-25.075-53.828-54.323-53.602-118.050 0.917-216.521-24.879-303.855-94.592-16.772-13.393-39.45-14.976-57.822-7.014-18.372-7.962-41.050-6.379-57.822 7.014-87.334 69.713-185.804 95.509-303.855 94.592-29.248-0.226-54.323 23.189-54.323 53.602v631.418c0 27.327 20.916 50.961 49.143 52.918 143.263 9.931 262.433-23.078 366.857-122.586zM544 90.658c95.317 70.793 201.365 97.195 320 97.728v610.717c-128.956 6.944-229.867-25.576-320-117.711v-590.734zM480 90.658v590.734c-90.132 92.135-191.044 124.655-320 117.711v-610.717c118.634-0.533 224.682-26.935 320-97.728zM266.667 671.38v-90.153c40.017-6.517 76.692-25.563 106.667-49.784v91.241c-34.202 30.609-65.404 45.585-106.667 48.696zM376.535 530.453c0.001 0-0.012-0.009-0.042-0.026l0.042 0.026zM202.667 683.304c0 27.809 22.202 53.237 52.95 52.638 67.218-1.311 116.249-24.815 164.798-69.565 11.099-10.231 16.919-24.464 16.919-38.826v-104.816c0-29.052-21.837-46.238-39.366-52.634-17.588-6.417-42.761-6.878-62.177 9.357-25.076 20.971-54.303 35.439-83.561 39.206-24.919 3.209-49.563 23.908-49.563 54.66v109.979zM576.704 404.574c56.316 47.565 144.636 78.554 235.183 75.098 17.66-0.674 31.433-15.539 30.758-33.199-0.678-17.66-15.539-31.428-33.199-30.754-75.964 2.897-148.326-23.62-191.445-60.041-13.504-11.405-33.694-9.702-45.099 3.797-11.401 13.504-9.702 33.694 3.802 45.099zM573.594 265.084c68.224 75.482 147.524 99.012 238.293 95.543 17.66-0.674 31.433-15.535 30.758-33.195-0.678-17.66-15.539-31.433-33.199-30.758-75.742 2.893-135.262-15.744-188.373-74.505-11.849-13.111-32.085-14.135-45.197-2.283-13.111 11.849-14.135 32.085-2.283 45.197z" />
<glyph unicode="&#xe90f;" glyph-name="bubble-chat-2-love-notification" d="M85.333 675.204c0 64.802 52.532 117.333 117.333 117.333h335.535v-64h-335.535c-29.455 0-53.333-23.878-53.333-53.333v-381.116c0-29.457 23.878-53.333 53.333-53.333h141.888c16.717 0 32.467-7.838 42.547-21.175v0l82.232-108.796 82.231 108.796c10.082 13.338 25.83 21.175 42.547 21.175h141.888c29.457 0 53.333 23.876 53.333 53.333v315.303h64v-315.303c0-64.802-52.531-117.333-117.333-117.333h-136.58l-87.539-115.823c-21.338-28.233-63.757-28.233-85.094 0l-87.54 115.823h-136.579c-64.801 0-117.333 52.531-117.333 117.333v381.116zM226.125 534.019c0 17.673 14.327 32 32 32h181.21c17.673 0 32-14.327 32-32s-14.327-31.999-32-31.999h-181.21c-17.673 0-32 14.327-32 31.999zM226.125 404.638c0 17.673 14.327 32 32 32h100.941c17.673 0 32-14.327 32-32s-14.327-32-32-32h-100.941c-17.673 0-32 14.327-32 32zM857.975 791.992c-24.004 24.006-62.925 24.006-86.929 0l-20.279-20.278c-13.466-13.465-35.298-13.465-48.759 0l-20.279 20.278c-24.004 24.006-62.925 24.006-86.933 0-24.004-24.006-24.004-62.927 0-86.932l131.593-131.59 131.588 131.59c24.009 24.006 24.009 62.927 0 86.932zM726.387 837.839c49.045 48.406 128.043 48.209 176.845-0.592 48.998-48.999 48.998-128.442 0-177.442l-145.451-145.45c-17.34-17.34-45.453-17.34-62.788 0l-145.451 145.45c-48.998 48.999-48.998 128.442 0 177.442 48.798 48.801 127.799 48.998 176.845 0.592z" />
<glyph unicode="&#xe910;" glyph-name="bubble-chat-2-notification" d="M85.333 675.203c0 64.801 52.532 117.333 117.333 117.333h463.522v-64h-463.522c-29.455 0-53.333-23.878-53.333-53.333v-381.118c0-29.453 23.878-53.333 53.333-53.333h141.888c16.717 0 32.467-7.838 42.547-21.175v0l82.232-108.796 82.231 108.796c10.082 13.338 25.83 21.175 42.547 21.175h141.888c29.457 0 53.333 23.881 53.333 53.333v309.835h64v-309.835c0-64.802-52.531-117.333-117.333-117.333h-136.58l-87.539-115.819c-21.338-28.233-63.757-28.233-85.094 0l-87.54 115.819h-136.579c-64.801 0-117.333 52.531-117.333 117.333v381.118zM226 532.211c0 17.675 14.327 32.002 32 32.002h311.084c17.673 0 32-14.327 32-32.002 0-17.673-14.327-32-32-32h-311.084c-17.673 0-32 14.327-32 32zM226 402.833c0 17.673 14.327 32 32 32h173.287c17.673 0 32-14.327 32-32s-14.327-32-32-32h-173.287c-17.673 0-32 14.327-32 32zM789.043 810.452c-47.13 0-85.333-38.205-85.333-85.333s38.204-85.333 85.333-85.333c47.125 0 85.333 38.205 85.333 85.333s-38.208 85.333-85.333 85.333zM639.71 725.119c0 82.475 66.859 149.333 149.333 149.333s149.333-66.859 149.333-149.333c0-82.475-66.859-149.333-149.333-149.333s-149.333 66.859-149.333 149.333z" />
<glyph unicode="&#xe911;" glyph-name="bubble-chat-3" d="M85.333 746.667c0 64.801 52.532 117.333 117.333 117.333h618.667c64.802 0 117.333-52.532 117.333-117.333v-448c0-64.802-52.531-117.333-117.333-117.333h-165.406l-101.38-134.127c-21.338-28.233-63.757-28.233-85.094 0l-101.379 134.127h-165.408c-64.801 0-117.333 52.531-117.333 117.333v448zM202.667 800c-29.455 0-53.333-23.878-53.333-53.333v-448c0-29.457 23.878-53.333 53.333-53.333h170.716c16.717 0 32.467-7.838 42.547-21.175l96.070-127.104 96.068 127.104c10.082 13.338 25.83 21.175 42.547 21.175h170.718c29.457 0 53.333 23.876 53.333 53.333v448c0 29.455-23.876 53.333-53.333 53.333h-618.667zM520.508 85.794v0zM243.042 576c0 17.673 14.327 32 32 32h348.792c17.673 0 32-14.327 32-32s-14.327-32-32-32h-348.792c-17.673 0-32 14.327-32 32zM243.042 430.938c0 17.673 14.327 32 32 32h194.292c17.673 0 32-14.327 32-32s-14.327-32-32-32h-194.292c-17.673 0-32 14.327-32 32z" />
<glyph unicode="&#xe912;" glyph-name="bubble-chat-3-1" d="M85.333 746.667c0 64.801 52.532 117.333 117.333 117.333h618.667c64.802 0 117.333-52.532 117.333-117.333v-448c0-64.802-52.531-117.333-117.333-117.333h-165.406l-101.38-134.127c-21.338-28.233-63.757-28.233-85.094 0l-101.379 134.127h-165.408c-64.801 0-117.333 52.531-117.333 117.333v448zM202.667 800c-29.455 0-53.333-23.878-53.333-53.333v-448c0-29.457 23.878-53.333 53.333-53.333h170.716c16.717 0 32.467-7.838 42.547-21.175l96.070-127.104 96.068 127.104c10.082 13.338 25.83 21.175 42.547 21.175h170.718c29.457 0 53.333 23.876 53.333 53.333v448c0 29.455-23.876 53.333-53.333 53.333h-618.667zM520.508 85.794v0zM243.042 576c0 17.673 14.327 32 32 32h348.792c17.673 0 32-14.327 32-32s-14.327-32-32-32h-348.792c-17.673 0-32 14.327-32 32zM243.042 430.938c0 17.673 14.327 32 32 32h194.292c17.673 0 32-14.327 32-32s-14.327-32-32-32h-194.292c-17.673 0-32 14.327-32 32z" />
<glyph unicode="&#xe913;" glyph-name="bubble-chat-check" d="M85.333 746.667c0 64.801 52.532 117.333 117.333 117.333h618.667c64.802 0 117.333-52.532 117.333-117.333v-415.966c0-19.887-4.971-38.703-13.769-55.185l-56.461 30.131c3.968 7.437 6.229 15.932 6.229 25.054v415.966c0 29.455-23.876 53.333-53.333 53.333h-618.667c-29.455 0-53.333-23.878-53.333-53.333v-415.966c0-29.457 23.878-53.333 53.333-53.333h10.667c29.455 0 53.333-23.881 53.333-53.333v-108.467l165.598 148.207c9.779 8.755 22.443 13.594 35.567 13.594h55.812v-64h-51.733l-180.343-161.404c-34.355-30.746-88.901-6.362-88.901 39.744v121.66c-64.801 0-117.333 52.531-117.333 117.333v415.966zM248.887 99.657c0.004 0 0.009 0.004 0.013 0.009l-0.013-0.009zM243.042 605.846c0 17.673 14.327 32 32 32h348.792c17.673 0 32-14.327 32-32s-14.327-32-32-32h-348.792c-17.673 0-32 14.327-32 32zM243.042 460.783c0 17.673 14.327 32 32 32h194.292c17.673 0 32-14.327 32-32 0-17.677-14.327-32-32-32h-194.292c-17.673 0-32 14.323-32 32zM719.723 395.2c-85.564 0-154.931-69.367-154.931-154.935 0-85.564 69.367-154.931 154.931-154.931 85.568 0 154.935 69.367 154.935 154.931 0 85.568-69.367 154.935-154.935 154.935zM500.791 240.265c0 120.913 98.018 218.935 218.931 218.935s218.935-98.022 218.935-218.935c0-120.913-98.022-218.931-218.935-218.931s-218.931 98.018-218.931 218.931zM821.67 308.902c12.497-12.497 12.497-32.755 0-45.252l-103.219-103.219c-12.343-12.348-32.307-12.518-44.864-0.384l-44.237 42.752c-12.706 12.279-13.056 32.538-0.772 45.248 12.279 12.706 32.538 13.052 45.248 0.772l21.615-20.89 80.977 80.973c12.497 12.497 32.755 12.497 45.252 0z" />
<glyph unicode="&#xe914;" glyph-name="bubble-chat-circle-frame" d="M265.5 589.552c0 41.237 33.429 74.667 74.667 74.667h343.545c41.237 0 74.667-33.429 74.667-74.667v-250.817c0-41.237-33.429-74.667-74.667-74.667h-85.124l-42.308-63.3c-21.116-31.595-67.563-31.595-88.678 0l-42.31 63.3h-85.124c-41.237 0-74.667 33.429-74.667 74.667v250.817zM340.167 600.219c-5.891 0-10.667-4.776-10.667-10.667v-250.817c0-5.888 4.775-10.667 10.667-10.667h90.826c17.809 0 34.441-8.887 44.339-23.697l36.608-54.771 36.608 54.771c9.899 14.81 26.53 23.697 44.339 23.697h90.825c5.892 0 10.667 4.779 10.667 10.667v250.817c0 5.891-4.774 10.667-10.667 10.667h-343.545zM512 810.667c-200.295 0-362.667-162.371-362.667-362.667s162.371-362.667 362.667-362.667c200.294 0 362.667 162.372 362.667 362.667s-162.372 362.667-362.667 362.667zM85.333 448c0 235.642 191.025 426.667 426.667 426.667 235.639 0 426.667-191.025 426.667-426.667 0-235.639-191.027-426.667-426.667-426.667-235.642 0-426.667 191.027-426.667 426.667z" />
<glyph unicode="&#xe915;" glyph-name="bubble-chat-minus" d="M619.255 240.265c0 17.673 14.327 32 32 32h137.084c17.677 0 32-14.327 32-32s-14.323-32-32-32h-137.084c-17.673 0-32 14.327-32 32zM85.338 746.667c0 64.802 52.532 117.333 117.333 117.333h618.666c64.802 0 117.333-52.532 117.333-117.333v-415.966c0-18.47-4.288-36.028-11.959-51.652l-57.451 28.203c3.456 7.040 5.41 14.972 5.41 23.45v415.966c0 29.455-23.876 53.333-53.333 53.333h-618.666c-29.455 0-53.333-23.878-53.333-53.333v-415.966c0-29.457 23.878-53.333 53.333-53.333h10.667c29.455 0 53.333-23.876 53.333-53.333v-108.467l165.597 148.207c9.779 8.755 22.443 13.594 35.567 13.594h63.211v-64h-59.132l-180.342-161.404c-34.354-30.746-88.901-6.362-88.901 39.744v121.66c-64.801 0-117.333 52.531-117.333 117.333v415.966zM248.892 99.657c0.004 0.004 0.009 0.004 0.013 0.009l-0.013-0.009zM243.047 605.847c0 17.673 14.327 32 32 32h348.791c17.673 0 32-14.327 32-32s-14.327-32-32-32h-348.791c-17.673 0-32 14.327-32 32zM243.047 460.783c0 17.673 14.327 32 32 32h194.291c17.673 0 32-14.327 32-32s-14.327-32-32-32h-194.291c-17.673 0-32 14.327-32 32zM719.727 395.2c-85.564 0-154.931-69.367-154.931-154.935 0-85.564 69.367-154.931 154.931-154.931 85.568 0 154.935 69.367 154.935 154.931 0 85.568-69.367 154.935-154.935 154.935zM500.796 240.265c0 120.913 98.022 218.935 218.931 218.935 120.913 0 218.935-98.022 218.935-218.935s-98.022-218.931-218.935-218.931c-120.909 0-218.931 98.018-218.931 218.931z" />
<glyph unicode="&#xe916;" glyph-name="bubble-chat-notification" d="M85.312 650.573c0 64.802 52.532 117.333 117.333 117.333h470.869v-64h-470.869c-29.455 0-53.333-23.878-53.333-53.333v-354.159c0-28.565 23.156-51.721 51.719-51.721 29.233 0 52.93-23.697 52.93-52.928v-95.902l190.941 138.654c9.109 6.613 20.079 10.176 31.339 10.176h259.738c29.457 0 53.333 23.876 53.333 53.333v304.020h64v-304.020c0-64.802-52.531-117.333-117.333-117.333h-256.273l-205.074-148.911c-35.256-25.604-84.671-0.418-84.671 43.153v106.278c-58.717 5.577-104.649 55.023-104.649 115.2v354.159zM226.021 542.023c0 17.673 14.327 32 32 32h268.793c17.673 0 32-14.327 32-32 0-17.671-14.327-31.999-32-31.999h-268.793c-17.673 0-32 14.327-32 31.999zM226.021 412.642c0 17.673 14.327 32 32 32h149.728c17.673 0 31.999-14.327 31.999-32s-14.326-32-31.999-32h-149.728c-17.673 0-32 14.327-32 32zM791.731 810.453c-47.13 0-85.333-38.205-85.333-85.333s38.204-85.333 85.333-85.333c47.125 0 85.333 38.205 85.333 85.333s-38.208 85.333-85.333 85.333zM642.398 725.12c0 82.475 66.859 149.333 149.333 149.333 82.47 0 149.333-66.859 149.333-149.333s-66.863-149.333-149.333-149.333c-82.475 0-149.333 66.859-149.333 149.333z" />
<glyph unicode="&#xe917;" glyph-name="bubble-chat-plus" d="M85.333 746.667c0 64.801 52.532 117.333 117.333 117.333h618.667c64.802 0 117.333-52.532 117.333-117.333v-415.966c0-24.158-7.334-46.699-19.904-65.399l-53.116 35.703c5.696 8.478 9.020 18.65 9.020 29.696v415.966c0 29.455-23.876 53.333-53.333 53.333h-618.667c-29.455 0-53.333-23.878-53.333-53.333v-415.966c0-29.457 23.878-53.333 53.333-53.333h10.667c29.455 0 53.333-23.881 53.333-53.333v-108.467l165.598 148.207c9.779 8.755 22.443 13.594 35.567 13.594h56.841v-64h-52.762l-180.343-161.404c-34.355-30.746-88.901-6.362-88.901 39.744v121.66c-64.801 0-117.333 52.531-117.333 117.333v415.966zM248.887 99.657c0.004 0 0.009 0.004 0.013 0.009l-0.013-0.009zM243.042 605.846c0 17.673 14.327 32 32 32h348.792c17.673 0 32-14.327 32-32s-14.327-32-32-32h-348.792c-17.673 0-32 14.327-32 32zM243.042 460.783c0 17.673 14.327 32 32 32h194.292c17.673 0 32-14.327 32-32 0-17.677-14.327-32-32-32h-194.292c-17.673 0-32 14.323-32 32zM719.723 395.2c-85.564 0-154.931-69.367-154.931-154.935 0-85.564 69.367-154.931 154.931-154.931 85.568 0 154.935 69.367 154.935 154.931 0 85.568-69.367 154.935-154.935 154.935zM500.791 240.265c0 120.913 98.018 218.935 218.931 218.935s218.935-98.022 218.935-218.935c0-120.913-98.022-218.931-218.935-218.931s-218.931 98.018-218.931 218.931zM619.251 240.265c0 17.673 14.327 32 32 32h137.084c17.673 0 32-14.327 32-32s-14.327-32-32-32h-137.084c-17.673 0-32 14.327-32 32zM719.791 340.809c17.673 0 32-14.327 32-32v-137.088c0-17.673-14.327-32-32-32s-32 14.327-32 32v137.088c0 17.673 14.327 32 32 32z" />
<glyph unicode="&#xe918;" glyph-name="bubble-chat-square-frame" d="M265.508 589.552c0 41.237 33.429 74.667 74.667 74.667h343.546c41.237 0 74.667-33.429 74.667-74.667v-250.817c0-41.237-33.429-74.667-74.667-74.667h-85.124l-42.308-63.3c-21.116-31.595-67.563-31.595-88.683 0l-42.307 63.3h-85.124c-41.237 0-74.667 33.429-74.667 74.667v250.817zM340.175 600.219c-5.891 0-10.667-4.776-10.667-10.667v-250.817c0-5.888 4.776-10.667 10.667-10.667h90.823c17.813 0 34.445-8.887 44.343-23.697l36.608-54.771 36.608 54.771c9.894 14.81 26.53 23.697 44.339 23.697h90.825c5.892 0 10.667 4.779 10.667 10.667v250.817c0 5.891-4.774 10.667-10.667 10.667h-343.546zM85.341 757.334c0 64.801 52.532 117.333 117.333 117.333h618.668c64.802 0 117.333-52.532 117.333-117.333v-618.667c0-64.802-52.531-117.333-117.333-117.333h-618.668c-64.801 0-117.333 52.531-117.333 117.333v618.667zM202.674 810.667c-29.455 0-53.333-23.878-53.333-53.333v-618.667c0-29.453 23.878-53.333 53.333-53.333h618.668c29.453 0 53.333 23.881 53.333 53.333v618.667c0 29.455-23.881 53.333-53.333 53.333h-618.668z" />
<glyph unicode="&#xe919;" glyph-name="bubble-chat" d="M85.333 746.667c0 64.801 52.532 117.333 117.333 117.333h618.667c64.802 0 117.333-52.532 117.333-117.333v-415.966c0-64.802-52.531-117.333-117.333-117.333h-298.94l-235.056-170.684c-35.256-25.6-84.671-0.414-84.671 43.157v127.526c-64.801 0-117.333 52.531-117.333 117.333v415.966zM202.667 800c-29.455 0-53.333-23.878-53.333-53.333v-415.966c0-29.457 23.878-53.333 53.333-53.333h10.667c29.455 0 53.333-23.881 53.333-53.333v-117.265l220.924 160.422c9.109 6.613 20.079 10.176 31.339 10.176h302.404c29.457 0 53.333 23.876 53.333 53.333v415.966c0 29.455-23.876 53.333-53.333 53.333h-618.667zM243.042 605.846c0 17.673 14.327 32 32 32h348.792c17.673 0 32-14.327 32-32s-14.327-32-32-32h-348.792c-17.673 0-32 14.327-32 32zM243.042 460.783c0 17.673 14.327 32 32 32h194.292c17.673 0 32-14.327 32-32 0-17.677-14.327-32-32-32h-194.292c-17.673 0-32 14.323-32 32z" />
<glyph unicode="&#xe91a;" glyph-name="bubble-chat-x" d="M85.333 746.667c0 64.801 52.532 117.333 117.333 117.333h618.667c64.802 0 117.333-52.532 117.333-117.333v-415.966c0-22.652-6.451-43.895-17.63-61.879l-54.353 33.788c5.056 8.137 7.983 17.724 7.983 28.092v415.966c0 29.455-23.876 53.333-53.333 53.333h-618.667c-29.455 0-53.333-23.878-53.333-53.333v-415.966c0-29.457 23.878-53.333 53.333-53.333h10.667c29.455 0 53.333-23.881 53.333-53.333v-108.467l165.598 148.207c9.779 8.755 22.443 13.594 35.567 13.594h59.981v-64h-55.902l-180.343-161.404c-34.355-30.746-88.901-6.362-88.901 39.744v121.66c-64.801 0-117.333 52.531-117.333 117.333v415.966zM248.887 99.657c0.004 0 0.009 0.004 0.013 0.009l-0.013-0.009zM243.042 605.846c0 17.673 14.327 32 32 32h348.792c17.673 0 32-14.327 32-32s-14.327-32-32-32h-348.792c-17.673 0-32 14.327-32 32zM243.042 460.783c0 17.673 14.327 32 32 32h194.292c17.673 0 32-14.327 32-32 0-17.677-14.327-32-32-32h-194.292c-17.673 0-32 14.323-32 32zM719.723 395.2c-85.564 0-154.931-69.367-154.931-154.935 0-85.564 69.367-154.931 154.931-154.931 85.568 0 154.935 69.367 154.935 154.931 0 85.568-69.367 154.935-154.935 154.935zM500.791 240.265c0 120.913 98.018 218.935 218.931 218.935s218.935-98.022 218.935-218.935c0-120.913-98.022-218.931-218.935-218.931s-218.931 98.018-218.931 218.931zM640.913 313.54c12.497 12.497 32.759 12.497 45.257 0l112.491-112.491c12.497-12.497 12.497-32.759 0-45.257s-32.759-12.497-45.257 0l-112.491 112.491c-12.497 12.497-12.497 32.759 0 45.257zM798.66 313.536c12.497-12.493 12.497-32.755 0-45.252l-112.491-112.491c-12.497-12.497-32.759-12.497-45.257 0s-12.497 32.755 0 45.252l112.491 112.491c12.497 12.497 32.759 12.497 45.257 0z" />
<glyph unicode="&#xe91b;" glyph-name="Bug" d="M224 576c0 64.801 52.532 117.333 117.333 117.333h341.333c64.802 0 117.333-52.532 117.333-117.333v-256c0-159.057-128.943-288-288-288s-288 128.943-288 288v256zM341.333 629.333c-29.455 0-53.333-23.878-53.333-53.333v-256c0-123.712 100.288-224 224-224s224 100.288 224 224v256c0 29.455-23.876 53.333-53.333 53.333h-341.333zM512 693.333c17.673 0 32-14.327 32-32v-384c0-17.673-14.327-32-32-32s-32 14.327-32 32v384c0 17.673 14.327 32 32 32zM736 448c0 17.673 14.327 32 32 32h85.333c17.673 0 32-14.327 32-32s-14.327-32-32-32h-85.333c-17.673 0-32 14.327-32 32zM138.667 448c0 17.673 14.327 32 32 32h85.333c17.673 0 32-14.327 32-32s-14.327-32-32-32h-85.333c-17.673 0-32 14.327-32 32zM404.039 854.627c12.497 12.497 32.756 12.497 45.254 0l42.667-42.667c12.497-12.497 12.497-32.758 0-45.255s-32.755-12.497-45.252 0l-42.668 42.667c-12.497 12.497-12.497 32.758 0 45.255zM619.959 854.627c12.497-12.497 12.497-32.758 0-45.255l-42.667-42.667c-12.497-12.497-32.755-12.497-45.252 0s-12.497 32.758 0 45.255l42.667 42.667c12.497 12.497 32.755 12.497 45.252 0zM856.815 735.809c17.57-1.928 30.246-17.732 28.322-35.3l-31.812 3.491c31.812-3.491 31.812-3.485 31.812-3.491l-0.009-0.051-0.009-0.069-0.021-0.191-0.068-0.588c-0.060-0.482-0.141-1.141-0.252-1.961-0.218-1.638-0.542-3.928-0.994-6.734-0.9-5.587-2.325-13.34-4.446-22.136-4.049-16.815-11.349-40.605-24.41-59.934-12.885-19.067-31.642-34.397-45.338-44.229-7.147-5.132-13.594-9.239-18.287-12.085-2.355-1.429-4.297-2.555-5.692-3.349-0.7-0.397-1.263-0.712-1.681-0.941l-0.508-0.279-0.166-0.090-0.060-0.033c-0.004-0.003-0.047-0.025-15.198 28.161l15.151-28.186c-15.565-8.368-34.97-2.533-43.337 13.034-8.358 15.552-2.543 34.932 12.988 43.313-0.004-0.003 0.004 0.002 0 0l0.196 0.106 0.99 0.556c0.922 0.524 2.338 1.345 4.13 2.432 3.601 2.185 8.623 5.384 14.153 9.353 11.661 8.37 23.108 18.421 29.628 28.070 6.562 9.711 11.716 24.54 15.219 39.084 1.655 6.883 2.782 12.995 3.486 17.352 0.35 2.167 0.589 3.869 0.738 4.98l0.149 1.198 0.026 0.199c1.933 17.562 17.737 30.246 35.298 28.318zM202.475 707.502c-1.933 17.562-17.735 30.235-35.299 28.307-17.568-1.928-30.246-17.732-28.318-35.3l31.809 3.491c-31.809-3.491-31.809-3.485-31.809-3.491l0.013-0.12 0.022-0.19 0.070-0.588c0.058-0.481 0.141-1.14 0.25-1.961 0.218-1.638 0.544-3.928 0.996-6.734 0.902-5.588 2.327-13.34 4.445-22.136 4.049-16.815 11.35-40.605 24.41-59.934 12.883-19.067 31.64-34.397 45.337-44.229 7.148-5.132 13.595-9.24 18.287-12.086 2.356-1.429 4.296-2.555 5.692-3.348 0.699-0.397 1.264-0.713 1.679-0.942l0.509-0.279 0.228-0.124c0.005-0.003 0.046-0.024 15.197 28.161l-15.152-28.186c15.567-8.368 34.969-2.533 43.337 13.034 8.367 15.563 2.535 34.961-13.025 43.332l-0.157 0.087-0.991 0.556c-0.922 0.524-2.338 1.345-4.13 2.432-3.603 2.185-8.623 5.384-14.153 9.353-11.66 8.369-23.11 18.421-29.63 28.070-6.562 9.711-11.716 24.539-15.217 39.084-1.657 6.883-2.781 12.995-3.484 17.352-0.35 2.167-0.591 3.87-0.739 4.98l-0.153 1.198-0.025 0.21c0 0.005-0.002 0.017 0 0zM741.99 295.974c10.295 14.366 30.289 17.664 44.651 7.369l-18.641-26.010c18.641 26.010 18.637 26.014 18.641 26.010l0.047-0.034 0.064-0.047 0.171-0.124 0.516-0.375c0.418-0.307 0.986-0.73 1.69-1.263 1.404-1.062 3.345-2.569 5.705-4.476 4.698-3.797 11.123-9.259 18.223-16.055 13.85-13.257 31.859-33.088 43.904-56.853 11.985-23.654 18.854-53.163 22.758-74.79 2.022-11.196 3.383-21.069 4.241-28.169 0.431-3.554 0.738-6.443 0.943-8.474 0.102-1.015 0.175-1.822 0.23-2.394l0.060-0.683 0.017-0.205 0.004-0.068c0-0.004 0.004-0.043-30.093-2.517l30.097 2.475c1.451-17.613-11.652-33.067-29.265-34.517-17.609-1.446-33.058 11.644-34.517 29.248 0 0.004 0 0 0 0zM741.99 295.974c-10.291-14.362-6.997-34.347 7.356-44.642l-7.356 44.642zM749.308 251.362c-0.009 0.004 0.030-0.021 0.038-0.030l-0.038 0.030zM821.436 104.021l-0.009 0.077-0.034 0.41-0.175 1.818c-0.162 1.634-0.422 4.070-0.794 7.142-0.747 6.161-1.933 14.775-3.686 24.486-3.644 20.181-9.233 42.163-16.866 57.233-7.36 14.519-19.558 28.531-31.066 39.543-5.577 5.338-10.62 9.621-14.217 12.527-1.792 1.451-3.2 2.539-4.117 3.234l-0.981 0.734-0.145 0.107zM274.653 251.337c-0.011-0.009 0.011 0.009 0 0 14.322 10.308 17.633 30.293 7.349 44.638-10.296 14.366-30.287 17.664-44.651 7.369l18.642-26.010c-18.642 26.010-18.637 26.014-18.642 26.010l-0.048-0.034-0.063-0.047-0.685-0.499c-0.419-0.307-0.987-0.73-1.69-1.263-1.403-1.062-3.347-2.569-5.704-4.476-4.699-3.797-11.124-9.259-18.226-16.055-13.85-13.257-31.857-33.088-43.901-56.853-11.986-23.654-18.855-53.163-22.761-74.79-2.022-11.196-3.383-21.069-4.242-28.169-0.431-3.554-0.738-6.443-0.941-8.474-0.102-1.015-0.177-1.822-0.229-2.394l-0.061-0.683-0.017-0.205-0.006-0.068c0-0.004-0.003-0.043 30.060-2.517l-30.063 2.475c-1.45-17.613 11.654-33.067 29.267-34.517 17.61-1.446 33.062 11.652 34.516 29.261 0 0 0 0 0 0zM394.667 704c0 64.801 52.531 117.333 117.333 117.333s117.333-52.532 117.333-117.333v-42.667c0-17.673-14.327-32-32-32s-32 14.327-32 32v42.667c0 29.455-23.876 53.333-53.333 53.333s-53.333-23.878-53.333-53.333v-42.667c0-17.673-14.327-32-32-32s-32 14.327-32 32v42.667z" />
<glyph unicode="&#xe91c;" glyph-name="Burger-1" d="M96 661.333c0 17.673 14.327 32 32 32h768c17.673 0 32-14.327 32-32s-14.327-32-32-32h-768c-17.673 0-32 14.327-32 32zM96 448c0 17.673 14.327 32 32 32h768c17.673 0 32-14.327 32-32s-14.327-32-32-32h-768c-17.673 0-32 14.327-32 32zM96 234.667c0 17.673 14.327 32 32 32h768c17.673 0 32-14.327 32-32s-14.327-32-32-32h-768c-17.673 0-32 14.327-32 32z" />
<glyph unicode="&#xe91d;" glyph-name="Burger" d="M96 661.333c0 17.673 14.327 32 32 32h768c17.673 0 32-14.327 32-32s-14.327-32-32-32h-768c-17.673 0-32 14.327-32 32zM96 234.667c0 17.673 14.327 32 32 32h768c17.673 0 32-14.327 32-32s-14.327-32-32-32h-768c-17.673 0-32 14.327-32 32z" />
<glyph unicode="&#xe91e;" glyph-name="calendar" d="M106.208 716.052c0 53.019 42.981 96 96 96h619.577c53.018 0 96-42.981 96-96v-598.719c0-53.022-42.982-96-96-96h-619.577c-53.019 0-96 42.978-96 96v598.719zM202.208 748.052c-17.673 0-32-14.327-32-32v-598.719c0-17.673 14.327-32 32-32h619.577c17.673 0 32 14.327 32 32v598.719c0 17.673-14.327 32-32 32h-619.577zM298.583 874.667c17.673 0 32-14.327 32-32v-104.658c0-17.673-14.327-32-32-32s-32 14.327-32 32v104.658c0 17.673 14.327 32 32 32zM725.419 874.667c17.673 0 32-14.327 32-32v-104.658c0-17.673-14.327-32-32-32-17.677 0-32 14.327-32 32v104.658c0 17.673 14.323 32 32 32zM139.417 661.13h746.382v-64h-746.382v64zM255.875 490.628c0 17.677 14.327 32 32 32h64c17.673 0 32-14.323 32-32 0-17.673-14.327-32-32-32h-64c-17.673 0-32 14.327-32 32zM447.957 490.628c0 17.677 14.327 32 32 32h64c17.673 0 32-14.323 32-32 0-17.673-14.327-32-32-32h-64c-17.673 0-32 14.327-32 32zM640.043 490.628c0 17.677 14.327 32 32 32h64c17.673 0 32-14.323 32-32 0-17.673-14.327-32-32-32h-64c-17.673 0-32 14.327-32 32zM255.875 341.231c0 17.673 14.327 32 32 32h64c17.673 0 32-14.327 32-32s-14.327-32-32-32h-64c-17.673 0-32 14.327-32 32zM447.957 341.231c0 17.673 14.327 32 32 32h64c17.673 0 32-14.327 32-32s-14.327-32-32-32h-64c-17.673 0-32 14.327-32 32zM640.043 341.231c0 17.673 14.327 32 32 32h64c17.673 0 32-14.327 32-32s-14.327-32-32-32h-64c-17.673 0-32 14.327-32 32zM255.875 191.834c0 17.673 14.327 32 32 32h64c17.673 0 32-14.327 32-32s-14.327-32-32-32h-64c-17.673 0-32 14.327-32 32zM447.957 191.834c0 17.673 14.327 32 32 32h64c17.673 0 32-14.327 32-32s-14.327-32-32-32h-64c-17.673 0-32 14.327-32 32zM640.043 191.834c0 17.673 14.327 32 32 32h64c17.673 0 32-14.327 32-32s-14.327-32-32-32h-64c-17.673 0-32 14.327-32 32z" />
<glyph unicode="&#xe91f;" glyph-name="Camera-Minus" d="M170.667 607.983c-5.891 0-10.667-4.776-10.667-10.667v-426.667c0-5.892 4.776-10.667 10.667-10.667h639.876c5.888 0 10.667 4.774 10.667 10.667v147.038c0 17.673 14.327 32 32 32s32-14.327 32-32v-147.038c0-41.237-33.429-74.667-74.667-74.667h-639.876c-41.237 0-74.667 33.429-74.667 74.667v426.667c0 41.237 33.429 74.667 74.667 74.667h508.676c17.673 0 32-14.327 32-32s-14.327-32-32-32h-508.676zM306.997 759.383c13.921 25.059 40.334 40.6 69 40.6h229.212c28.668 0 55.078-15.542 69.001-40.6l54.178-97.521c13.431-24.173-4.049-53.879-31.701-53.879h-412.165c-27.653 0-45.132 29.706-31.703 53.879l54.178 97.521zM375.997 735.983c-5.423 0-10.42-2.941-13.054-7.681l-31.288-56.319h317.898l-31.287 56.319c-2.637 4.741-7.633 7.681-13.056 7.681h-229.212zM490.603 479.983c-53.018 0-95.998-42.982-95.998-96s42.981-96 95.998-96c53.022 0 96 42.982 96 96s-42.978 96-96 96zM330.604 383.983c0 88.367 71.634 160 159.998 160 88.367 0 160-71.633 160-160s-71.633-160-160-160c-88.364 0-159.998 71.633-159.998 160zM194.583 511.983c0 17.673 14.327 32 32 32h64c17.673 0 32-14.327 32-32s-14.327-32-32-32h-64c-17.673 0-32 14.327-32 32zM693.333 511.983c0 17.673 14.327 32 32 32h170.667c17.673 0 32-14.327 32-32s-14.327-32-32-32h-170.667c-17.673 0-32 14.327-32 32z" />
<glyph unicode="&#xe920;" glyph-name="Camera-Plus" d="M170.667 607.983c-5.891 0-10.667-4.776-10.667-10.667v-426.667c0-5.892 4.776-10.667 10.667-10.667h639.876c5.888 0 10.667 4.774 10.667 10.667v147.038c0 17.673 14.327 32 32 32s32-14.327 32-32v-147.038c0-41.237-33.429-74.667-74.667-74.667h-639.876c-41.237 0-74.667 33.429-74.667 74.667v426.667c0 41.237 33.429 74.667 74.667 74.667h508.676c17.673 0 32-14.327 32-32s-14.327-32-32-32h-508.676zM306.997 759.383c13.921 25.059 40.334 40.6 69 40.6h229.212c28.668 0 55.078-15.542 69.001-40.6l54.178-97.521c13.431-24.173-4.049-53.879-31.701-53.879h-412.165c-27.653 0-45.132 29.706-31.703 53.879l54.178 97.521zM375.997 735.983c-5.423 0-10.42-2.941-13.054-7.681l-31.288-56.319h317.898l-31.287 56.319c-2.637 4.741-7.633 7.681-13.056 7.681h-229.212zM490.603 479.983c-53.018 0-95.998-42.982-95.998-96s42.981-96 95.998-96c53.022 0 96 42.982 96 96s-42.978 96-96 96zM330.604 383.983c0 88.367 71.634 160 159.998 160 88.367 0 160-71.633 160-160s-71.633-160-160-160c-88.364 0-159.998 71.633-159.998 160zM194.583 511.983c0 17.673 14.327 32 32 32h64c17.673 0 32-14.327 32-32s-14.327-32-32-32h-64c-17.673 0-32 14.327-32 32zM693.333 511.983c0 17.673 14.327 32 32 32h170.667c17.673 0 32-14.327 32-32s-14.327-32-32-32h-170.667c-17.673 0-32 14.327-32 32zM810.667 629.316c17.673 0 32-14.327 32-32v-170.667c0-17.673-14.327-32-32-32s-32 14.327-32 32v170.667c0 17.673 14.327 32 32 32z" />
<glyph unicode="&#xe921;" glyph-name="Camera" d="M192.062 607.983c-5.891 0-10.667-4.776-10.667-10.667v-426.667c0-5.892 4.776-10.667 10.667-10.667h639.874c5.892 0 10.667 4.774 10.667 10.667v426.667c0 5.891-4.774 10.667-10.667 10.667h-639.874zM117.396 597.316c0 41.237 33.43 74.667 74.667 74.667h639.874c41.237 0 74.667-33.43 74.667-74.667v-426.667c0-41.237-33.429-74.667-74.667-74.667h-639.874c-41.237 0-74.667 33.429-74.667 74.667v426.667zM328.393 759.383c13.921 25.059 40.334 40.6 69 40.6h229.213c28.663 0 55.078-15.542 69.001-40.6l54.178-97.521c13.427-24.173-4.049-53.879-31.706-53.879h-412.162c-27.653 0-45.132 29.706-31.703 53.879l54.179 97.521zM397.393 735.983c-5.423 0-10.42-2.941-13.054-7.681l-31.288-56.319h317.9l-31.292 56.319c-2.633 4.741-7.629 7.681-13.052 7.681h-229.213zM512 479.983c-53.018 0-96-42.982-96-96s42.982-96 96-96c53.018 0 96 42.982 96 96s-42.982 96-96 96zM352 383.983c0 88.367 71.634 160 160 160s160-71.633 160-160-71.633-160-160-160c-88.366 0-160 71.633-160 160zM215.979 511.983c0 17.673 14.327 32 32 32h64c17.673 0 32-14.327 32-32s-14.327-32-32-32h-64c-17.673 0-32 14.327-32 32z" />
<glyph unicode="&#xe922;" glyph-name="Card-History" d="M213.333 719.584c-29.455 0-53.333-23.878-53.333-53.333v-426.668c0-29.453 23.878-53.333 53.333-53.333h400.491c0 0.29 0 0.58 0 0.866 0 88.367 71.633 160 160 160 16.521 0 32.482-2.513 47.509-7.181v326.316c0 29.455-23.876 53.333-53.333 53.333h-554.667zM96 666.25c0 64.802 52.532 117.333 117.333 117.333h554.667c64.802 0 117.333-52.532 117.333-117.333v-361.149c0-17.318-10.458-30.212-22.31-36.318-11.614-5.986-27.004-6.878-40.503 1.088-14.251 8.41-30.861 13.244-48.695 13.244-53.022 0-96-42.978-96-96 0-5.67 0.486-11.204 1.417-16.563 4.019-23.164-12.881-48.303-40.247-48.303h-425.66c-64.801 0-117.333 52.535-117.333 117.333v426.668zM773.824 283.115c-53.022 0-96-42.978-96-96 0-17.673-14.327-32-32-32s-32 14.327-32 32c0 88.367 71.633 160 160 160 88.363 0 160-71.633 160-160 0-88.363-71.637-160-160-160-17.673 0-32 14.327-32 32s14.327 32 32 32c53.018 0 96 42.982 96 96 0 53.022-42.982 96-96 96zM576.61 306.295c17.118 4.386 34.551-5.939 38.938-23.061l28.352-110.724 78.869 70.409c13.184 11.772 33.412 10.624 45.184-2.56 11.767-13.184 10.624-33.412-2.56-45.18l-112.892-100.787c-20.284-18.108-52.544-8.282-59.29 18.061l-39.663 154.906c-4.386 17.122 5.939 34.556 23.061 38.938zM853.333 548.917h-725.333v64h725.333v-64zM224 320c0 17.673 14.327 32 32 32h170.667c17.673 0 32-14.327 32-32s-14.327-32-32-32h-170.667c-17.673 0-32 14.327-32 32z" />
<glyph unicode="&#xe923;" glyph-name="Card" d="M96 661.333c0 64.801 52.532 117.333 117.333 117.333h597.333c64.802 0 117.333-52.532 117.333-117.333v-426.667c0-64.802-52.531-117.333-117.333-117.333h-597.333c-64.801 0-117.333 52.531-117.333 117.333v426.667zM213.333 714.667c-29.455 0-53.333-23.878-53.333-53.333v-426.667c0-29.457 23.878-53.333 53.333-53.333h597.333c29.457 0 53.333 23.876 53.333 53.333v426.667c0 29.455-23.876 53.333-53.333 53.333h-597.333zM896 544h-768v64h768v-64zM224 320c0 17.673 14.327 32 32 32h170.667c17.673 0 32-14.327 32-32s-14.327-32-32-32h-170.667c-17.673 0-32 14.327-32 32z" />
<glyph unicode="&#xe924;" glyph-name="Cards" d="M341.333 757.333c-29.455 0-53.333-23.878-53.333-53.333v-53.333h394.667c64.802 0 117.333-52.532 117.333-117.333v-224h10.667c29.457 0 53.333 23.876 53.333 53.333v341.333c0 29.455-23.876 53.333-53.333 53.333h-469.333zM224 704c0 64.801 52.532 117.333 117.333 117.333h469.333c64.802 0 117.333-52.532 117.333-117.333v-341.333c0-64.802-52.531-117.333-117.333-117.333h-74.667v288c0 29.455-23.876 53.333-53.333 53.333h-458.667v117.333zM96 533.333c0 64.801 52.532 117.333 117.333 117.333h469.333c64.802 0 117.333-52.532 117.333-117.333v-341.333c0-64.802-52.531-117.333-117.333-117.333h-469.333c-64.801 0-117.333 52.531-117.333 117.333v341.333zM213.333 586.667c-29.455 0-53.333-23.878-53.333-53.333v-341.333c0-29.457 23.878-53.333 53.333-53.333h469.333c29.457 0 53.333 23.876 53.333 53.333v341.333c0 29.455-23.876 53.333-53.333 53.333h-469.333zM768 416h-640v64h640v-64zM224 234.667c0 17.673 14.327 32 32 32h128c17.673 0 32-14.327 32-32s-14.327-32-32-32h-128c-17.673 0-32 14.327-32 32z" />
<glyph unicode="&#xe925;" glyph-name="Cart" d="M100.887 835.849c8.017 15.75 27.284 22.019 43.034 14.002l62.957-32.047c22.742-11.576 37.997-33.965 40.45-59.366l37.624-389.675h427.53c17.673 0 32-14.327 32-32 0-17.677-14.327-32-32-32h-447.335c-18.934-14.652-21.654-43.183-4.325-61.133l6.291-6.515c1.512-1.566 3.594-2.449 5.77-2.449h580.344c17.673 0 32-14.327 32-32s-14.327-32-32-32h-580.344c-19.539 0-38.24 7.94-51.811 21.995l-6.291 6.515c-43.135 44.676-37.626 115.025 7.456 153.203l-38.612 399.908c-0.35 3.629-2.53 6.827-5.778 8.481l-62.957 32.047c-15.75 8.017-22.019 27.284-14.002 43.034zM746.56 170.667c-17.673 0-32-14.327-32-32s14.327-32 32-32c17.673 0 32 14.327 32 32s-14.327 32-32 32zM650.56 138.667c0 53.018 42.982 96 96 96s96-42.982 96-96c0-53.018-42.982-96-96-96s-96 42.982-96 96zM362.56 170.667c-17.673 0-32-14.327-32-32s14.327-32 32-32c17.673 0 32 14.327 32 32s-14.327 32-32 32zM266.56 138.667c0 53.018 42.981 96 96 96s96-42.982 96-96c0-53.018-42.981-96-96-96s-96 42.982-96 96zM191.667 711.957l671.066-41.145c49.621-3.043 82.466-52.821 65.745-99.64l-67.345-188.572c-16.678-46.699-60.911-77.871-110.498-77.871h-523.894l-35.074 407.228zM261.797 643.537l23.668-274.808h465.169c22.537 0 42.645 14.17 50.223 35.396l67.349 188.572c2.389 6.688-2.304 13.8-9.391 14.234l-597.019 36.605z" />
<glyph unicode="&#xe926;" glyph-name="Check" d="M833.062 684.189c12.625-12.37 12.83-32.63 0.461-45.253l-388.177-396.099c-28.928-29.517-76.329-29.922-105.756-0.905v0l-148.725 146.662c-12.584 12.412-12.725 32.67-0.316 45.257 12.409 12.582 32.67 12.723 45.254 0.316l148.725-146.662c4.204-4.147 10.976-4.087 15.108 0.128l388.175 396.099c12.373 12.622 32.631 12.827 45.252 0.457z" />
<glyph unicode="&#xe927;" glyph-name="Clock-2" d="M512 800c-194.404 0-352-157.596-352-352 0-194.402 157.596-352 352-352 194.402 0 352 157.598 352 352 0 194.404-157.598 352-352 352zM96 448c0 229.751 186.249 416 416 416s416-186.249 416-416c0-229.751-186.249-416-416-416s-416 186.249-416 416zM512 736c17.673 0 32-14.327 32-32v-224h224c17.673 0 32-14.327 32-32s-14.327-32-32-32h-234.667c-29.457 0-53.333 23.876-53.333 53.333v234.667c0 17.673 14.327 32 32 32zM512 245.333c17.673 0 32-14.327 32-32v-21.333c0-17.673-14.327-32-32-32s-32 14.327-32 32v21.333c0 17.673 14.327 32 32 32zM379.046 304.691c12.497-12.497 12.497-32.759 0-45.257l-15.085-15.083c-12.497-12.497-32.758-12.497-45.255 0-12.497 12.493-12.497 32.755 0 45.252l15.085 15.087c12.497 12.497 32.758 12.497 45.255 0zM647.415 304.691c12.497 12.497 32.755 12.497 45.252 0l15.087-15.087c12.497-12.497 12.497-32.759 0-45.252-12.497-12.497-32.759-12.497-45.257 0l-15.083 15.083c-12.497 12.497-12.497 32.759 0 45.257zM224 448c0 17.673 14.327 32 32 32h21.333c17.673 0 32-14.327 32-32s-14.327-32-32-32h-21.333c-17.673 0-32 14.327-32 32zM318.706 651.648c12.497 12.497 32.758 12.497 45.255 0l15.085-15.085c12.497-12.497 12.497-32.758 0-45.255s-32.758-12.497-45.255 0l-15.085 15.085c-12.497 12.497-12.497 32.758 0 45.255zM707.755 651.648c12.497-12.497 12.497-32.758 0-45.255l-15.087-15.085c-12.497-12.497-32.755-12.497-45.252 0s-12.497 32.758 0 45.255l15.083 15.085c12.497 12.497 32.759 12.497 45.257 0z" />
<glyph unicode="&#xe928;" glyph-name="Clock" d="M512 800c-194.404 0-352-157.596-352-352 0-194.402 157.596-352 352-352 194.402 0 352 157.598 352 352 0 194.404-157.598 352-352 352zM96 448c0 229.751 186.249 416 416 416s416-186.249 416-416c0-229.751-186.249-416-416-416s-416 186.249-416 416zM512 714.667c17.673 0 32-14.327 32-32v-220.527c0-11.034 5.683-21.291 15.040-27.136l140.587-87.868c14.989-9.365 19.541-29.107 10.176-44.096s-29.107-19.541-44.096-10.176l-140.587 87.868c-28.070 17.54-45.12 48.307-45.12 81.408v220.527c0 17.673 14.327 32 32 32z" />
<glyph unicode="&#xe929;" glyph-name="Close" d="M190.705 126.699c-12.497 12.497-12.497 32.759 0 45.257l597.335 597.337c12.497 12.497 32.759 12.497 45.257 0s12.497-32.758 0-45.255l-597.337-597.338c-12.497-12.493-32.758-12.493-45.255 0zM190.706 769.3c12.497 12.497 32.758 12.497 45.255 0l597.336-597.336c12.497-12.497 12.497-32.759 0-45.257s-32.759-12.497-45.257 0l-597.335 597.338c-12.497 12.497-12.497 32.758 0 45.255z" />
<glyph unicode="&#xe92a;" glyph-name="Compass" d="M455.369 503.991l166.801 54.71-55.283-165.592-165.792-55.347 54.274 166.229zM425.146 561.435c-12.918-4.237-23.043-14.376-27.263-27.299l-83.925-257.054c-5.438-16.657 10.414-32.405 27.036-26.854l256.266 85.551c12.727 4.25 22.711 14.234 26.961 26.961l85.53 256.198c5.555 16.634-10.219 32.492-26.884 27.026l-257.721-84.529zM512 800c-194.404 0-352-157.596-352-352 0-194.402 157.596-352 352-352 194.402 0 352 157.598 352 352 0 194.404-157.598 352-352 352zM96 448c0 229.751 186.249 416 416 416s416-186.249 416-416c0-229.751-186.249-416-416-416s-416 186.249-416 416z" />
<glyph unicode="&#xe92b;" glyph-name="Dark--Light" d="M512 639.938c-106.004 0-191.938-85.934-191.938-191.938s85.934-191.936 191.938-191.936c106.005 0 191.936 85.931 191.936 191.936s-85.931 191.938-191.936 191.938zM256.062 448c0 141.35 114.587 255.938 255.938 255.938s255.936-114.587 255.936-255.938c0-141.35-114.586-255.936-255.936-255.936s-255.938 114.586-255.938 255.936zM512 255.834c106.121 0 192.149 86.037 192.149 192.166 0 106.131-86.029 192.167-192.149 192.167v-384.333zM512 864c17.673 0 32-14.327 32-32v-53.333c0-17.673-14.327-32-32-32s-32 14.327-32 32v53.333c0 17.673 14.327 32 32 32zM806.135 742.167c12.497-12.497 12.497-32.758 0-45.255l-37.713-37.713c-12.497-12.497-32.759-12.497-45.252 0-12.497 12.497-12.497 32.758 0 45.255l37.709 37.713c12.497 12.497 32.759 12.497 45.257 0zM806.135 153.903c-12.497-12.497-32.759-12.497-45.257 0l-37.709 37.709c-12.497 12.497-12.497 32.759 0 45.257s32.755 12.497 45.252 0l37.713-37.713c12.497-12.497 12.497-32.755 0-45.252zM927.966 448.034c0-17.673-14.327-32-32-32h-53.333c-17.673 0-32 14.327-32 32s14.327 32 32 32h53.333c17.673 0 32-14.327 32-32zM512 149.402c17.673 0 32-14.327 32-32v-53.333c0-17.673-14.327-32-32-32s-32 14.327-32 32v53.333c0 17.673 14.327 32 32 32zM300.838 236.868c12.497-12.497 12.497-32.759 0-45.257l-37.712-37.709c-12.497-12.497-32.758-12.497-45.255 0s-12.497 32.755 0 45.252l37.712 37.713c12.497 12.497 32.758 12.497 45.255 0zM300.836 659.2c-12.497-12.497-32.758-12.497-45.255 0l-37.713 37.712c-12.497 12.497-12.497 32.758 0 45.255s32.758 12.497 45.255 0l37.713-37.712c12.497-12.497 12.497-32.758 0-45.255zM213.367 448.034c0-17.673-14.327-32-32-32h-53.333c-17.673 0-32 14.327-32 32s14.327 32 32 32h53.333c17.673 0 32-14.327 32-32z" />
<glyph unicode="&#xe92c;" glyph-name="device" d="M370.912 293.551c17.673 0 32-14.327 32-32v-80.201h141.579c17.677 0 32-14.327 32-32 0-17.677-14.323-32-32-32h-173.579c-17.673 0-32 14.323-32 32v112.201c0 17.673 14.327 32 32 32zM85.328 797.727c0 41.237 33.429 74.667 74.667 74.667h667.999c41.237 0 74.667-33.429 74.667-74.667v-179.356c0-17.673-14.327-32-32-32s-32 14.327-32 32v179.356c0 5.891-4.774 10.667-10.667 10.667h-667.999c-5.891 0-10.667-4.776-10.667-10.667v-345.635h397.112c17.673 0 32-14.327 32-32s-14.327-32-32-32h-397.112v-52.318c0-5.892 4.776-10.667 10.667-10.667h386.446c17.673 0 32-14.327 32-32s-14.327-32-32-32h-386.446c-41.237 0-74.667 33.429-74.667 74.667v461.953zM520.917 576.016c0 41.237 33.429 74.667 74.667 74.667h268.326c41.237 0 74.667-33.43 74.667-74.667v-482.089c0-41.237-33.429-74.667-74.667-74.667h-268.326c-41.237 0-74.667 33.429-74.667 74.667v482.089zM595.584 586.682c-5.892 0-10.667-4.776-10.667-10.667v-482.089c0-5.888 4.774-10.667 10.667-10.667h268.326c5.892 0 10.667 4.779 10.667 10.667v482.089c0 5.891-4.774 10.667-10.667 10.667h-268.326zM533.372 512c0 17.673 14.323 32 32 32h328.875c17.673 0 32-14.327 32-32s-14.327-32-32-32h-328.875c-17.677 0-32 14.327-32 32zM533.372 170.667c0 17.673 14.323 32 32 32h328.875c17.673 0 32-14.327 32-32s-14.327-32-32-32h-328.875c-17.677 0-32 14.327-32 32z" />
<glyph unicode="&#xe92d;" glyph-name="Double-Check" d="M301.143 293.926l21.671 23.543-133.482 122.854c-13.004 11.968-33.248 11.132-45.216-1.873s-11.129-33.25 1.874-45.218l133.482-122.854c29.591-27.234 75.436-26.142 103.693 2.475l330.486 334.671c12.42 12.575 12.292 32.836-0.282 45.254zM713.37 652.778c-12.578 12.418-32.836 12.29-45.257-0.285l45.257 0.285zM668.113 652.494v0zM337.627 317.824c-4.037-4.087-10.586-4.245-14.813-0.354l14.813 0.354zM875.964 652.636c12.497-12.497 12.497-32.758 0-45.255l-321.719-321.715c-12.497-12.497-32.755-12.497-45.252 0s-12.497 32.755 0 45.252l321.715 321.718c12.497 12.497 32.759 12.497 45.257 0z" />
<glyph unicode="&#xe92e;" glyph-name="Download-1" d="M117.331 298.573c17.673 0 32-14.327 32-32v-128.034c0-29.457 23.878-53.333 53.333-53.333h618.665c29.457 0 53.333 23.876 53.333 53.333v128.034c0 17.673 14.327 32 32 32 17.677 0 32-14.327 32-32v-128.034c0-64.802-52.531-117.333-117.333-117.333h-618.665c-64.801 0-117.333 52.531-117.333 117.333v128.034c0 17.673 14.327 32 32 32zM511.996 857.969c17.677 0 32-14.327 32-32v-527.285c0-17.673-14.323-32-32-32-17.673 0-32 14.327-32 32v527.285c0 17.673 14.327 32 32 32zM292.273 471.471c12.955 12.023 33.202 11.264 45.223-1.69l174.5-188.053 174.502 188.053c12.023 12.954 32.269 13.713 45.222 1.69 12.958-12.019 13.713-32.269 1.694-45.222l-191.706-206.592c-16.038-17.284-43.383-17.284-59.422 0l-191.705 206.592c-12.021 12.954-11.264 33.203 1.69 45.222z" />
<glyph unicode="&#xe92f;" glyph-name="Download" d="M117.331 298.573c17.673 0 32-14.327 32-32v-128.034c0-29.457 23.878-53.333 53.333-53.333h618.665c29.457 0 53.333 23.876 53.333 53.333v128.034c0 17.673 14.327 32 32 32 17.677 0 32-14.327 32-32v-128.034c0-64.802-52.531-117.333-117.333-117.333h-618.665c-64.801 0-117.333 52.531-117.333 117.333v128.034c0 17.673 14.327 32 32 32zM511.996 857.969c17.677 0 32-14.327 32-32v-527.285c0-17.673-14.323-32-32-32-17.673 0-32 14.327-32 32v527.285c0 17.673 14.327 32 32 32zM292.273 471.471c12.955 12.023 33.202 11.264 45.223-1.69l174.5-188.053 174.502 188.053c12.023 12.954 32.269 13.713 45.222 1.69 12.958-12.019 13.713-32.269 1.694-45.222l-191.706-206.592c-16.038-17.284-43.383-17.284-59.422 0l-191.705 206.592c-12.021 12.954-11.264 33.203 1.69 45.222z" />
<glyph unicode="&#xe930;" glyph-name="edit-1" d="M675.964 851.656c29.158 29.159 76.433 29.159 105.596 0l135.159-135.164c29.163-29.159 29.163-76.435 0-105.594l-567.611-567.613c-14.003-14.003-32.995-21.871-52.797-21.871h-156.459c-29.45 0-53.327 23.872-53.333 53.321l-0.035 156.497c-0.005 19.806 7.863 38.805 21.869 52.813l567.61 567.611zM736.303 806.401c-4.164 4.166-10.918 4.166-15.087 0l-77.687-77.688 150.251-150.249 77.687 77.688c4.164 4.166 4.164 10.919 0 15.085l-135.164 135.164zM748.523 533.21l-150.246 150.249-444.668-444.666c-2.001-2.001-3.125-4.719-3.124-7.548l0.032-145.83h145.794c2.829 0 5.542 1.122 7.543 3.123l444.669 444.672zM298.636 85.414h597.335c17.673 0 32-14.327 32-32 0-17.677-14.327-32-32-32h-597.335c-17.673 0-32 14.323-32 32 0 17.673 14.327 32 32 32z" />
<glyph unicode="&#xe931;" glyph-name="edit" d="M726.622 851.213c29.158 29.159 76.433 29.159 105.596 0l84.151-84.152c29.158-29.159 29.158-76.436 0-105.595l-400.358-400.359c-8.427-8.427-19.43-13.786-31.258-15.228l-130.199-15.876c-34.391-4.194-63.59 25.003-59.397 59.396l15.876 130.197c1.442 11.827 6.803 22.831 15.229 31.258l400.36 400.359zM686.255 720.336l-312.137-312.136-13.781-113.020 113.020 13.781 312.132 312.137-99.234 99.237zM830.746 666.354l-99.238 99.237 40.367 40.367c4.169 4.166 10.923 4.166 15.087 0l84.151-84.152c4.164-4.166 4.164-10.92 0-15.085l-40.367-40.367zM181.333 810.667c-17.673 0-32-14.327-32-32v-661.333c0-17.673 14.327-32 32-32h661.333c17.673 0 32 14.327 32 32v330.667c0 17.673 14.327 32 32 32s32-14.327 32-32v-330.667c0-53.018-42.982-96-96-96h-661.333c-53.019 0-96 42.982-96 96v661.333c0 53.019 42.981 96 96 96h330.667c17.673 0 32-14.327 32-32s-14.327-32-32-32h-330.667z" />
<glyph unicode="&#xe932;" glyph-name="Emotion" d="M512 800c-194.404 0-352-157.596-352-352 0-194.402 157.596-352 352-352 194.402 0 352 157.598 352 352 0 194.404-157.598 352-352 352zM96 448c0 229.751 186.249 416 416 416s416-186.249 416-416c0-229.751-186.249-416-416-416s-416 186.249-416 416zM283.609 433.57c15.594 8.316 34.978 2.415 43.294-13.18 20.623-38.665 45.932-65.958 75.607-83.763s65.667-27.294 109.49-27.294c43.823 0 79.817 9.489 109.491 27.294s54.985 45.099 75.61 83.763c8.316 15.595 27.699 21.495 43.294 13.18 15.59-8.32 21.491-27.703 13.175-43.294-25.097-47.061-57.877-83.767-99.149-108.531s-89.088-36.412-142.421-36.412c-53.333 0-101.146 11.648-142.418 36.412s-74.051 61.47-99.15 108.531c-8.317 15.59-2.417 34.974 13.176 43.294zM426.667 533.333c0-23.565-19.103-42.667-42.667-42.667s-42.667 19.102-42.667 42.667c0 23.564 19.103 42.667 42.667 42.667s42.667-19.103 42.667-42.667zM682.667 533.333c0-23.565-19.102-42.667-42.667-42.667s-42.667 19.102-42.667 42.667c0 23.564 19.102 42.667 42.667 42.667s42.667-19.103 42.667-42.667z" />
<glyph unicode="&#xe933;" glyph-name="Eye-Hidden" d="M512.017 544.003c-53.022 0-96.001-42.981-96.001-95.998 0-21.325 6.914-40.939 18.63-56.849 10.483-14.234 7.441-34.266-6.788-44.745-14.232-10.479-34.264-7.437-44.744 6.793-19.541 26.534-31.098 59.366-31.098 94.801 0 88.364 71.634 159.998 160.001 159.998 34.496 0 66.534-10.955 92.693-29.573 14.396-10.248 17.762-30.228 7.514-44.626-10.249-14.4-30.225-17.763-44.625-7.514-15.68 11.157-34.82 17.713-55.582 17.713zM642.129 469.722c17.617-1.387 30.775-16.794 29.389-34.415-6.157-78.229-68.493-140.595-146.714-146.799-17.617-1.395-33.033 11.75-34.428 29.372-1.399 17.617 11.75 33.033 29.367 34.428 46.857 3.716 84.284 41.161 87.97 88.021 1.387 17.621 16.794 30.78 34.415 29.393zM276.49 606.441c-59.386-59.321-97-126.509-112.025-156.337-0.739-1.468-0.739-2.739 0-4.203 16.18-32.124 58.347-107.145 125.442-169.246 12.971-12.002 13.753-32.247 1.749-45.218s-32.251-13.756-45.221-1.749c-75.16 69.564-121.428 152.282-139.128 187.422-9.861 19.575-9.861 42.21 0 61.786 16.525 32.806 57.768 106.712 123.953 172.825 66.229 66.157 160.028 126.965 280.748 126.965 79.347 0 147.285-26.348 203.268-63.254 14.758-9.728 18.833-29.574 9.105-44.33s-29.572-18.831-44.331-9.104c-47.671 31.429-103.565 52.688-168.043 52.688-97.689 0-176.176-48.967-235.518-108.244zM778.351 621.961c13.397 11.528 33.6 10.014 45.129-3.382 48.311-56.138 79.36-112.147 93.227-139.684v0c9.865-19.575 9.865-42.21 0-61.786v0c-16.525-32.806-57.766-106.714-123.951-172.826-66.231-66.159-160.030-126.963-280.747-126.963-53.47 0-101.891 11.977-145 31.189-16.142 7.198-23.395 26.116-16.2 42.257s26.114 23.394 42.256 16.201c35.718-15.919 75.296-25.647 118.944-25.647 97.685 0 176.175 48.964 235.516 108.241 59.388 59.324 97.003 126.511 112.026 156.339 0.738 1.463 0.738 2.735 0 4.203-12.489 24.798-40.828 75.891-84.578 126.729-11.529 13.396-10.014 33.6 3.379 45.129zM826.539 790.609c12.497-12.497 12.497-32.758 0-45.255l-640-640.002c-12.497-12.497-32.758-12.497-45.255 0s-12.497 32.759 0 45.257l639.998 640c12.497 12.497 32.759 12.497 45.257 0z" />
<glyph unicode="&#xe934;" glyph-name="Eye" d="M512.017 544.003c-53.022 0-96.001-42.981-96.001-95.998 0-53.022 42.979-96 96.001-96 53.018 0 96 42.978 96 96 0 53.018-42.982 95.998-96 95.998zM352.016 448.004c0 88.364 71.634 159.998 160.001 159.998 88.363 0 160-71.634 160-159.998 0-88.367-71.637-160-160-160-88.367 0-160.001 71.633-160.001 160zM276.49 606.441c-59.386-59.321-97-126.509-112.025-156.337-0.739-1.468-0.739-2.739 0-4.203 15.025-29.828 52.639-97.015 112.025-156.339 59.342-59.277 137.83-108.241 235.518-108.241 97.685 0 176.175 48.964 235.516 108.241 59.388 59.324 97.003 126.511 112.026 156.339 0.738 1.463 0.738 2.735 0 4.203-15.023 29.828-52.638 97.016-112.026 156.337-59.341 59.277-137.83 108.244-235.516 108.244-97.689 0-176.176-48.967-235.518-108.244zM231.261 651.72c66.229 66.157 160.028 126.965 280.748 126.965 120.717 0 214.515-60.808 280.747-126.965 66.185-66.113 107.426-140.019 123.951-172.825 9.865-19.575 9.865-42.21 0-61.786-16.525-32.806-57.766-106.714-123.951-172.826-66.231-66.159-160.030-126.963-280.747-126.963-120.72 0-214.519 60.804-280.748 126.963-66.186 66.112-107.429 140.019-123.953 172.826-9.861 19.575-9.861 42.21 0 61.786 16.525 32.806 57.768 106.712 123.953 172.825z" />
<glyph unicode="&#xe935;" glyph-name="Facebook" d="M691.691 400.030l21.884 138.927h-134.81v90.303c0 37.988 18.82 75.107 79.002 75.107h62.157v118.305c-36.198 5.767-72.772 8.887-109.427 9.334-110.959 0-183.398-66.641-183.398-187.117v-105.932h-122.993v-138.927h122.993v-336.030h151.667v336.030h112.926z" />
<glyph unicode="&#xe936;" glyph-name="Filter" d="M96 704c0 17.673 14.327 32 32 32h469.333c17.673 0 32-14.327 32-32s-14.327-32-32-32h-469.333c-17.673 0-32 14.327-32 32zM736 704c0 17.673 14.327 32 32 32h128c17.673 0 32-14.327 32-32s-14.327-32-32-32h-128c-17.673 0-32 14.327-32 32zM96 448c0 17.673 14.327 32 32 32h85.333c17.673 0 32-14.327 32-32s-14.327-32-32-32h-85.333c-17.673 0-32 14.327-32 32zM352 448c0 17.673 14.327 32 32 32h512c17.673 0 32-14.327 32-32s-14.327-32-32-32h-512c-17.673 0-32 14.327-32 32zM96 192c0 17.673 14.327 32 32 32h341.333c17.673 0 32-14.327 32-32s-14.327-32-32-32h-341.333c-17.673 0-32 14.327-32 32zM608 192c0 17.673 14.327 32 32 32h256c17.673 0 32-14.327 32-32s-14.327-32-32-32h-256c-17.673 0-32 14.327-32 32zM682.667 757.333c-29.457 0-53.333-23.878-53.333-53.333s23.876-53.333 53.333-53.333c29.457 0 53.333 23.878 53.333 53.333s-23.876 53.333-53.333 53.333zM565.333 704c0 64.801 52.531 117.333 117.333 117.333s117.333-52.532 117.333-117.333c0-64.801-52.531-117.333-117.333-117.333s-117.333 52.532-117.333 117.333zM298.667 501.333c-29.455 0-53.333-23.876-53.333-53.333s23.878-53.333 53.333-53.333c29.455 0 53.333 23.876 53.333 53.333s-23.878 53.333-53.333 53.333zM181.333 448c0 64.802 52.532 117.333 117.333 117.333s117.333-52.531 117.333-117.333c0-64.802-52.532-117.333-117.333-117.333s-117.333 52.531-117.333 117.333zM554.667 245.333c-29.457 0-53.333-23.876-53.333-53.333s23.876-53.333 53.333-53.333c29.457 0 53.333 23.876 53.333 53.333s-23.876 53.333-53.333 53.333zM437.333 192c0 64.802 52.531 117.333 117.333 117.333s117.333-52.531 117.333-117.333c0-64.802-52.531-117.333-117.333-117.333s-117.333 52.531-117.333 117.333z" />
<glyph unicode="&#xe937;" glyph-name="foward" d="M610.278 680.562c0 58.968 73.075 86.449 111.932 42.091l197.487-225.455c24.666-28.16 24.666-70.234 0-98.398l-197.487-225.451c-38.857-44.356-111.932-16.879-111.932 42.091v74.266h-136.115c-127.404 0-248.534-55.305-331.983-151.573-8.75-10.091-22.85-13.687-35.366-9.020-12.516 4.672-20.815 16.623-20.814 29.982 0.001 246.98 200.219 447.199 447.201 447.199h77.077v74.268zM674.278 680.244v-90.438c0-26.24-21.274-47.511-47.514-47.511h-93.564c-182.811 0-335.723-128.014-373.985-299.287 88.634 71.095 199.543 110.699 314.947 110.699h142.818c31.646 0 57.297-25.651 57.297-57.293v-80.657l197.274 225.216c3.524 4.023 3.524 10.035 0 14.059l-197.274 225.213z" />
<glyph unicode="&#xe938;" glyph-name="galery" d="M287.729 662.141c-17.673 0-32-14.327-32-32v-469.334c0-17.673 14.327-32 32-32h554.669c17.673 0 32 14.327 32 32v469.334c0 17.673-14.327 32-32 32h-554.669zM191.729 630.141c0 53.019 42.981 96 96 96h554.669c53.018 0 96-42.981 96-96v-469.334c0-53.018-42.982-96-96-96h-554.669c-53.019 0-96 42.982-96 96v469.334zM266.396 767.19c-64.801 0-117.333-52.532-117.333-117.333v-448.001c0-17.673-14.327-32-32-32s-32 14.327-32 32v448.001c0 100.148 81.186 181.333 181.333 181.333h533.335c17.673 0 32-14.327 32-32s-14.327-32-32-32h-533.335zM485.342 431.603v0zM529.203 478.208l335.147-315.43c12.868-12.113 13.483-32.367 1.37-45.235s-32.363-13.483-45.235-1.37zM826.010 345.297c-3.904 3.9-10.133 4.181-14.374 0.649l-98.065-81.719c-13.577-11.315-33.754-9.481-45.069 4.096s-9.481 33.754 4.096 45.069l98.069 81.724c29.666 24.721 73.289 22.741 100.595-4.565l57.783-57.779c12.497-12.497 12.497-32.759 0-45.257s-32.759-12.497-45.257 0l-57.779 57.783zM714.415 553.982c-17.673 0-32-14.327-32-32.002 0-17.673 14.327-32 32-32 17.677 0 32 14.327 32 32 0 17.675-14.323 32.002-32 32.002zM618.415 521.98c0 53.021 42.982 96.002 96 96.002 53.022 0 96-42.981 96-96.002 0-53.018-42.978-96-96-96-53.018 0-96 42.982-96 96z" />
<glyph unicode="&#xe939;" glyph-name="Gallery" d="M213.333 757.333c-29.455 0-53.333-23.878-53.333-53.333v-512c0-29.457 23.878-53.333 53.333-53.333h597.333c29.457 0 53.333 23.876 53.333 53.333v512c0 29.455-23.876 53.333-53.333 53.333h-597.333zM96 704c0 64.801 52.532 117.333 117.333 117.333h597.333c64.802 0 117.333-52.532 117.333-117.333v-512c0-64.802-52.531-117.333-117.333-117.333h-597.333c-64.801 0-117.333 52.531-117.333 117.333v512zM421.924 485.786c-4.034 4.275-10.764 4.48-15.050 0.461l-256.987-240.926c-12.893-12.087-33.144-11.435-45.231 1.459s-11.434 33.143 1.459 45.231l256.987 240.926c30.006 28.129 77.112 26.697 105.353-3.204l378.812-401.097c12.134-12.847 11.554-33.101-1.293-45.235-12.851-12.134-33.101-11.558-45.239 1.293l-378.81 401.092zM798.524 392.482c-3.9 3.904-10.133 4.186-14.37 0.653l-123.665-103.070c-13.577-11.311-33.754-9.481-45.069 4.096s-9.481 33.754 4.092 45.069l123.665 103.070c29.67 24.725 73.297 22.75 100.608-4.565l74.846-74.854c12.497-12.501 12.493-32.759-0.004-45.257s-32.759-12.493-45.257 0.004l-74.846 74.854zM661.333 624c-17.673 0-32-14.327-32-32s14.327-32 32-32c17.673 0 32 14.327 32 32s-14.327 32-32 32zM565.333 592c0 53.019 42.982 96 96 96s96-42.981 96-96c0-53.019-42.982-96-96-96s-96 42.981-96 96z" />
<glyph unicode="&#xe93a;" glyph-name="gif" d="M209.083 448c0 80.977 65.644 146.619 146.618 146.619h41.664c17.673 0 32.002-14.327 32.002-32s-14.329-31.999-32.002-31.999h-41.664c-45.629 0-82.618-36.992-82.618-82.62s36.989-82.62 82.618-82.62h35.428c3.044 0 5.511 2.47 5.511 5.513v42.935h-51.359c-17.673 0-32 14.327-32 32s14.327 32 32 32h83.36c17.673 0 32-14.327 32-32v-74.935c0-38.391-31.121-69.513-69.513-69.513h-35.428c-80.975 0-146.618 65.643-146.618 146.62zM553.668 594.619c17.673 0 32-14.327 32-32v-229.239c0-17.673-14.327-32-32-32-17.677 0-32 14.327-32 32v229.239c0 17.673 14.323 32 32 32zM646.707 562.619c0 17.673 14.327 32 32 32h104.201c17.673 0 32-14.327 32-32s-14.327-31.999-32-31.999h-72.201v-50.62h72.201c17.673 0 32-14.327 32-32s-14.327-32-32-32h-72.201v-82.62c0-17.673-14.327-32-32-32s-32 14.327-32 32v229.239zM85.333 725.314c0 53.019 42.981 96 96 96h661.333c53.018 0 96-42.981 96-96v-554.63c0-53.018-42.982-96-96-96h-661.333c-53.019 0-96 42.982-96 96v554.63zM181.333 757.314c-17.673 0-32-14.327-32-32v-554.63c0-17.673 14.327-32 32-32h661.333c17.673 0 32 14.327 32 32v554.63c0 17.673-14.327 32-32 32h-661.333z" />
<glyph unicode="&#xe93b;" glyph-name="group-bubble-chat" d="M191.708 745.509c0 64.801 52.532 117.333 117.333 117.333h512.002c64.798 0 117.333-52.532 117.333-117.333v-340.841c0-58.56-44.471-106.726-101.478-112.585v-117.060c0-44.791-51.874-69.632-86.771-41.553l-151.313 121.762 40.124 49.86 133.961-107.797v105.894c0 28.881 23.411 52.297 52.297 52.297 27.162 0 49.182 22.016 49.182 49.182v340.841c0 29.455-23.881 53.333-53.333 53.333h-512.002c-29.455 0-53.333-23.878-53.333-53.333v-214.301h-64v214.301zM181.333 501.35c-17.673 0-32-14.327-32-32v-242.846c0-17.677 14.327-32 32-32h14.024c29.455 0 53.333-23.881 53.333-53.333v-43.191l118.911 86.345c9.11 6.618 20.079 10.18 31.337 10.18h153.381c17.673 0 32 14.323 32 32v242.846c0 17.673-14.327 32-32 32h-370.987zM85.333 469.35c0 53.018 42.981 96 96 96h370.987c53.022 0 96-42.982 96-96v-242.846c0-53.022-42.982-96-96-96h-149.917l-133.042-96.61c-35.256-25.6-84.67-0.414-84.67 43.157v53.453h-3.357c-53.019 0-96 42.978-96 96v242.846z" />
<glyph unicode="&#xe93c;" glyph-name="Headphone" d="M650.671 426.641c0 41.237 33.429 74.667 74.667 74.667h85.333c64.802 0 117.333-52.531 117.333-117.333v-170.667c0-64.802-52.531-117.333-117.333-117.333h-85.333c-41.237 0-74.667 33.429-74.667 74.667v256zM725.338 437.308c-5.888 0-10.667-4.779-10.667-10.667v-256c0-5.892 4.779-10.667 10.667-10.667h85.333c29.457 0 53.333 23.876 53.333 53.333v170.667c0 29.453-23.876 53.333-53.333 53.333h-85.333zM96.005 383.974c0 64.802 52.532 117.333 117.333 117.333h85.333c41.237 0 74.667-33.429 74.667-74.667v-256c0-41.237-33.429-74.667-74.667-74.667h-85.333c-64.801 0-117.333 52.531-117.333 117.333v170.667zM213.338 437.308c-29.455 0-53.333-23.881-53.333-53.333v-170.667c0-29.457 23.878-53.333 53.333-53.333h85.333c5.891 0 10.667 4.774 10.667 10.667v256c0 5.888-4.776 10.667-10.667 10.667h-85.333zM225.13 513.152c0 158.435 128.438 286.874 286.874 286.874 158.438 0 286.878-128.439 286.878-286.874v-43.776c0-17.673-14.327-32-32-32-17.677 0-32 14.327-32 32v43.776c0 123.089-99.785 222.874-222.878 222.874-123.089 0-222.874-99.785-222.874-222.874v-43.776c0-17.673-14.327-32-32-32s-32 14.327-32 32v43.776z" />
<glyph unicode="&#xe93d;" glyph-name="Home-1" d="M525.901 799.707c-7.996 6.865-19.806 6.865-27.797 0l-341.060-292.874c-14.95-12.838-5.967-37.372 13.666-37.517 33.929-0.252 63.956-27.584 63.956-64.427v-298.223c0-11.78 9.551-21.333 21.333-21.333h128v106.667c0 58.91 47.757 106.667 106.667 106.667h42.667c58.91 0 106.667-47.757 106.667-106.667v-106.667h128c11.78 0 21.333 9.553 21.333 21.333v298.223c0 36.847 30.033 64.175 63.957 64.427 19.635 0.145 28.617 24.678 13.666 37.517l-341.056 292.874zM456.41 848.262c31.974 27.459 79.206 27.459 111.185 0l341.060-292.874c59.895-51.434 23.808-149.487-54.891-150.071-0.235 0-0.431-0.192-0.431-0.427v-298.223c0-47.13-38.204-85.333-85.333-85.333h-149.333c-23.565 0-42.667 19.102-42.667 42.667v128c0 23.565-19.102 42.667-42.667 42.667h-42.667c-23.565 0-42.667-19.102-42.667-42.667v-128c0-23.565-19.102-42.667-42.667-42.667h-149.333c-47.128 0-85.333 38.204-85.333 85.333v298.223c0 0.235-0.197 0.427-0.432 0.427-78.695 0.585-114.782 98.637-54.886 150.071l341.061 292.874z" />
<glyph unicode="&#xe93e;" glyph-name="Home" d="M832 139.383c0-11.78-9.553-21.333-21.333-21.333h-170.667v149.333c0 58.914-47.757 106.667-106.667 106.667h-42.667c-58.91 0-106.667-47.753-106.667-106.667v-149.333h-170.667c-11.782 0-21.333 9.553-21.333 21.333v384.934c0 6.583 3.040 12.797 8.236 16.839l298.665 232.296c7.706 5.992 18.492 5.992 26.197 0l298.667-232.297c5.197-4.041 8.235-10.255 8.235-16.838v-384.934zM160.944 591.675c-20.786-16.167-32.944-41.025-32.944-67.357v-384.934c0-47.125 38.205-85.333 85.333-85.333h192c23.565 0 42.667 19.106 42.667 42.667v170.667c0 23.565 19.102 42.667 42.667 42.667h42.667c23.565 0 42.667-19.102 42.667-42.667v-170.667c0-23.561 19.102-42.667 42.667-42.667h192c47.13 0 85.333 38.208 85.333 85.333v384.934c0 26.332-12.156 51.19-32.943 67.357l-298.667 232.297c-30.814 23.967-73.967 23.967-104.781 0l-298.666-232.297z" />
<glyph unicode="&#xe93f;" glyph-name="Information-Circle" d="M512 800c-194.404 0-352-157.596-352-352 0-194.402 157.596-352 352-352 194.402 0 352 157.598 352 352 0 194.404-157.598 352-352 352zM96 448c0 229.751 186.249 416 416 416s416-186.249 416-416c0-229.751-186.249-416-416-416s-416 186.249-416 416zM512 480c17.673 0 32-14.327 32-32v-170.667c0-17.673-14.327-32-32-32s-32 14.327-32 32v170.667c0 17.673 14.327 32 32 32zM554.667 576c0-23.564-19.102-42.667-42.667-42.667s-42.667 19.103-42.667 42.667c0 23.564 19.102 42.667 42.667 42.667s42.667-19.103 42.667-42.667z" />
<glyph unicode="&#xe940;" glyph-name="Information-Square-1" d="M96 746.667c0 64.801 52.532 117.333 117.333 117.333h597.333c64.802 0 117.333-52.532 117.333-117.333v-597.333c0-64.802-52.531-117.333-117.333-117.333h-597.333c-64.801 0-117.333 52.531-117.333 117.333v597.333zM213.333 800c-29.455 0-53.333-23.878-53.333-53.333v-597.333c0-29.457 23.878-53.333 53.333-53.333h597.333c29.457 0 53.333 23.876 53.333 53.333v597.333c0 29.455-23.876 53.333-53.333 53.333h-597.333zM512 480c17.673 0 32-14.327 32-32v-170.667c0-17.673-14.327-32-32-32s-32 14.327-32 32v170.667c0 17.673 14.327 32 32 32zM554.667 576c0-23.564-19.102-42.667-42.667-42.667s-42.667 19.103-42.667 42.667c0 23.564 19.102 42.667 42.667 42.667s42.667-19.103 42.667-42.667z" />
<glyph unicode="&#xe942;" glyph-name="Information-Square" d="M96 746.667c0 64.801 52.532 117.333 117.333 117.333h597.333c64.802 0 117.333-52.532 117.333-117.333v-597.333c0-64.802-52.531-117.333-117.333-117.333h-597.333c-64.801 0-117.333 52.531-117.333 117.333v597.333zM213.333 800c-29.455 0-53.333-23.878-53.333-53.333v-597.333c0-29.457 23.878-53.333 53.333-53.333h597.333c29.457 0 53.333 23.876 53.333 53.333v597.333c0 29.455-23.876 53.333-53.333 53.333h-597.333z" />
<glyph unicode="&#xe943;" glyph-name="Instagram" d="M384.174 448c0 70.69 57.324 128.010 128.056 128.010s128.085-57.32 128.085-128.010c0-70.69-57.353-128.009-128.085-128.009s-128.056 57.318-128.056 128.009zM314.933 448c0-108.902 88.33-197.18 197.297-197.18 108.966 0 197.299 88.277 197.299 197.18s-88.333 197.179-197.299 197.179c-108.968 0-197.297-88.277-197.297-197.179zM671.232 652.998c-0.004-9.114 2.697-18.024 7.761-25.604 5.060-7.58 12.262-13.489 20.685-16.98s17.694-4.407 26.637-2.633c8.947 1.775 17.165 6.16 23.616 12.602 6.447 6.442 10.842 14.651 12.625 23.589s0.875 18.203-2.611 26.625c-3.486 8.422-9.395 15.62-16.973 20.687-7.582 5.066-16.495 7.772-25.613 7.776h-0.021c-12.224-0.006-23.945-4.86-32.589-13.496s-13.508-20.349-13.517-32.565zM357.001 135.433c-37.461 1.707-57.822 7.94-71.353 13.21-17.939 6.98-30.738 15.292-44.196 28.723s-21.787 26.21-28.74 44.139c-5.275 13.517-11.515 33.873-13.218 71.309-1.863 40.478-2.234 52.638-2.234 155.183 0 102.548 0.403 114.673 2.234 155.183 1.706 37.438 7.992 57.754 13.218 71.31 6.984 17.929 15.302 30.72 28.74 44.169s26.226 21.775 44.196 28.723c13.525 5.271 33.892 11.508 71.353 13.21 40.501 1.862 52.667 2.233 155.229 2.233s114.739-0.402 155.277-2.233c37.461-1.705 57.788-7.987 71.351-13.21 17.937-6.949 30.737-15.293 44.194-28.723s21.76-26.241 28.74-44.169c5.278-13.517 11.516-33.872 13.218-71.31 1.865-40.511 2.236-52.636 2.236-155.183 0-102.545-0.371-114.671-2.236-155.183-1.707-37.436-7.974-57.783-13.218-71.309-6.98-17.929-15.3-30.72-28.74-44.139-13.436-13.419-26.257-21.743-44.194-28.723-13.525-5.269-33.89-11.507-71.351-13.21-40.503-1.86-52.668-2.231-155.277-2.231-102.608 0-114.74 0.371-155.229 2.231zM353.82 829.675c-40.903-1.862-68.854-8.344-93.263-17.836-25.279-9.803-46.679-22.954-68.064-44.292s-34.51-42.759-44.319-68.023c-9.498-24.41-15.984-52.329-17.847-93.207-1.894-40.944-2.327-54.033-2.327-158.316s0.433-117.372 2.327-158.315c1.862-40.883 8.349-68.8 17.847-93.21 9.809-25.246 22.937-46.694 44.319-68.023s42.785-34.462 68.064-44.292c24.456-9.489 52.36-15.974 93.263-17.835 40.99-1.86 54.066-2.325 158.411-2.325s117.444 0.435 158.409 2.325c40.909 1.86 68.843 8.346 93.265 17.835 25.263 9.83 46.682 22.955 68.066 44.292s34.479 42.778 44.318 68.023c9.498 24.41 16.013 52.331 17.847 93.21 1.86 40.973 2.295 54.033 2.295 158.315s-0.435 117.372-2.295 158.316c-1.865 40.882-8.35 68.813-17.847 93.207-9.839 25.249-22.967 46.651-44.318 68.023s-42.803 34.489-68.036 44.292c-24.452 9.492-52.39 16.005-93.261 17.836-40.969 1.862-54.067 2.325-158.413 2.325-104.344 0-117.451-0.433-158.441-2.325z" />
<glyph unicode="&#xe944;" glyph-name="Invoice" d="M928 149.333c0-64.802-52.531-117.333-117.333-117.333s-117.333 52.531-117.333 117.333v213.333c0 41.237 33.429 74.667 74.667 74.667h85.333c41.237 0 74.667-33.429 74.667-74.667v-213.333zM810.667 96c29.457 0 53.333 23.876 53.333 53.333v213.333c0 5.892-4.774 10.667-10.667 10.667h-85.333c-5.892 0-10.667-4.774-10.667-10.667v-213.333c0-29.457 23.876-53.333 53.333-53.333zM96 746.667c0 64.801 52.532 117.333 117.333 117.333h426.667c64.802 0 117.333-52.532 117.333-117.333v-597.060c0-21.734 14.336-40.862 35.196-46.963 39.996-11.695 31.552-70.643-10.116-70.643h-569.079c-64.801 0-117.333 52.531-117.333 117.333v597.333zM213.333 800c-29.455 0-53.333-23.878-53.333-53.333v-597.333c0-29.457 23.878-53.333 53.333-53.333h493.53c-8.683 16.090-13.53 34.406-13.53 53.606v597.060c0 29.455-23.876 53.333-53.333 53.333h-426.667zM266.667 576.019c0 17.673 14.327 32 32 32h256c17.673 0 32-14.327 32-32s-14.327-32-32-32h-256c-17.673 0-32 14.327-32 32zM266.667 448c0 17.673 14.327 32 32 32h256c17.673 0 32-14.327 32-32s-14.327-32-32-32h-256c-17.673 0-32 14.327-32 32zM266.667 319.979c0 17.677 14.327 32 32 32h256c17.673 0 32-14.323 32-32 0-17.673-14.327-32-32-32h-256c-17.673 0-32 14.327-32 32z" />
<glyph unicode="&#xe945;" glyph-name="lamp" d="M211 573.681c0 166.23 134.756 300.986 300.987 300.986 166.229 0 300.983-134.756 300.983-300.986 0-68.994-23.253-132.649-62.332-183.426-45.538-59.17-83.831-114.308-83.831-174.707v-162.214c0-17.673-14.327-32-32-32h-245.644c-17.673 0-32 14.327-32 32v162.214c0 60.399-38.292 115.537-83.831 174.707-39.079 50.778-62.333 114.432-62.333 183.426zM511.987 810.667c-130.885 0-236.987-106.102-236.987-236.986 0-54.385 18.281-104.412 49.051-144.395 37.878-49.216 83.593-110.221 94.629-181.739h61.307v104.452l-57.589 76.804c-10.602 14.14-7.735 34.197 6.406 44.796 14.14 10.603 34.197 7.735 44.796-6.404l38.391-51.196 38.409 51.204c10.607 14.135 30.665 16.998 44.804 6.396 14.135-10.607 16.998-30.665 6.396-44.804l-57.613-76.796v-104.452h61.303c11.038 71.518 56.751 132.523 94.63 181.739 30.771 39.983 49.050 90.010 49.050 144.395 0 130.883-106.099 236.986-236.983 236.986zM602.807 183.548h-181.644v-98.214h181.644v98.214z" />
<glyph unicode="&#xe946;" glyph-name="link-external-02" d="M331.43 864h95.236c17.673 0 32-14.327 32-32s-14.327-32-32-32h-93.867c-36.371 0-61.725-0.025-81.464-1.638-19.366-1.583-30.491-4.532-38.919-8.826-18.063-9.204-32.75-23.89-41.953-41.953-4.294-8.428-7.244-19.553-8.826-38.919-1.613-19.739-1.638-45.093-1.638-81.464v-358.4c0-36.373 0.025-61.726 1.638-81.463 1.583-19.366 4.532-30.494 8.826-38.921 9.204-18.061 23.89-32.747 41.953-41.954 8.428-4.292 19.553-7.241 38.919-8.823 19.739-1.613 45.093-1.638 81.464-1.638h358.4c36.373 0 61.726 0.026 81.463 1.638 19.366 1.583 30.494 4.531 38.921 8.823 18.061 9.207 32.747 23.893 41.954 41.954 4.292 8.427 7.241 19.554 8.823 38.921 1.613 19.738 1.638 45.090 1.638 81.463v93.867c0 17.673 14.327 32 32 32s32-14.327 32-32v-95.236c0-34.684 0-62.656-1.852-85.308-1.903-23.322-5.931-43.806-15.586-62.763-15.343-30.106-39.817-54.579-69.922-69.922-18.957-9.655-39.441-13.683-62.763-15.586-22.652-1.852-50.624-1.852-85.308-1.852h-361.14c-34.681 0-62.653 0-85.306 1.852-23.323 1.903-43.809 5.931-62.762 15.586-30.106 15.343-54.583 39.817-69.923 69.922-9.657 18.957-13.683 39.441-15.589 62.763-1.85 22.652-1.85 50.628-1.85 85.308v361.139c0 34.681 0 62.654 1.85 85.306 1.906 23.323 5.932 43.809 15.589 62.762 15.34 30.106 39.817 54.583 69.923 69.923 18.953 9.657 39.439 13.683 62.762 15.589 22.652 1.85 50.625 1.85 85.306 1.85zM608 832c0 17.673 14.327 32 32 32h256c17.673 0 32-14.327 32-32v-256c0-17.673-14.327-32-32-32s-32 14.327-32 32v178.745l-329.374-329.371c-12.497-12.497-32.755-12.497-45.252 0s-12.497 32.755 0 45.252l329.37 329.373h-178.743c-17.673 0-32 14.327-32 32z" />
<glyph unicode="&#xe947;" glyph-name="Link" d="M614.933 681.065c61.086 61.085 160.124 61.085 221.21 0l17.617-17.618c70.814-70.815 70.814-185.627 0-256.445l-150.848-150.848c-70.818-70.814-185.63-70.814-256.448 0-70.892 70.895-70.668 185.92-0.047 256.841 12.471 12.523 32.734 12.565 45.257 0.094s12.565-32.73 0.094-45.252c-45.841-46.037-45.862-120.614-0.047-166.426 45.82-45.824 120.115-45.824 165.935 0l150.848 150.848c45.824 45.82 45.824 120.113 0 165.934l-17.617 17.618c-36.092 36.091-94.605 36.091-130.697 0-12.497-12.497-32.759-12.497-45.257 0s-12.497 32.758 0 45.255zM343.209 618.877c70.815 70.815 185.631 70.815 256.445 0v0l17.617-17.618c61.086-61.085 61.086-160.124 0-221.205-12.497-12.497-32.759-12.497-45.257 0-12.493 12.493-12.493 32.755 0 45.252 36.092 36.092 36.092 94.609 0 130.698v0l-17.617 17.618c-45.82 45.821-120.111 45.821-165.934 0l-150.849-150.851c-45.821-45.82-45.821-120.111 0-165.935l18.005-18.001c35.878-35.878 94.047-35.878 129.924 0 12.497 12.493 32.758 12.493 45.257 0 12.493-12.497 12.493-32.759 0-45.257-60.873-60.873-159.565-60.873-220.436 0v0l-18.005 18.005c-70.815 70.814-70.815 185.63 0 256.444l150.849 150.849z" />
<glyph unicode="&#xe948;" glyph-name="Linkedin" d="M314.695 115.217v469.766h-156.005v-469.766h156.005zM236.725 649.111c54.391 0 88.252 36.073 88.252 81.153-1.018 46.108-33.862 81.174-87.218 81.174-53.393 0-88.265-35.066-88.265-81.169 0-45.081 33.85-81.153 86.208-81.153h1.010l0.012-0.004zM401.046 115.217h155.993v262.31c0 14.020 1.015 28.079 5.137 38.093 11.273 28.066 36.941 57.114 80.047 57.114 56.435 0 79.027-43.076 79.027-106.231v-251.285h155.985v269.35c0 144.286-76.949 211.429-179.584 211.429-84.151 0-121.105-47.074-141.641-79.137h1.041v68.107h-155.998c2.036-44.070-0.012-469.767-0.012-469.767l0.004 0.017z" />
<glyph unicode="&#xe949;" glyph-name="loading-download-1" d="M318.298 828.163c59.994 30.568 126.37 46.504 193.702 46.504 17.673 0 32-14.327 32-32s-14.327-32-32-32c-57.233 0-113.652-13.545-164.647-39.528s-95.116-63.666-128.756-109.968c-33.641-46.302-55.845-99.909-64.798-156.436-8.953-56.529-4.401-114.372 13.285-168.802 17.686-54.434 48.003-103.906 88.472-144.375s89.943-70.788 144.374-88.474c54.432-17.685 112.275-22.238 168.804-13.282 56.529 8.951 110.135 31.155 156.437 64.798 14.298 10.385 34.308 7.215 44.698-7.083 10.385-14.298 7.219-34.308-7.078-44.698-54.477-39.578-117.542-65.698-184.047-76.233-66.5-10.534-134.554-5.175-198.591 15.629-64.037 20.809-122.24 56.474-169.852 104.085s-83.278 105.818-104.085 169.852c-20.807 64.038-26.163 132.092-15.63 198.592 10.533 66.505 36.656 129.572 76.233 184.045s91.485 98.806 151.478 129.375zM888.657 325.875c16.316-6.793 24.038-25.523 17.246-41.843-13.756-33.041-31.612-64.222-53.154-92.804-10.633-14.118-30.699-16.934-44.813-6.302-14.114 10.637-16.934 30.703-6.298 44.817 18.308 24.294 33.489 50.799 45.18 78.886 6.793 16.316 25.523 24.038 41.839 17.246zM904.981 496.499c17.655 0.738 32.572-12.975 33.31-30.63 0.563-13.397 0.491-26.812-0.209-40.201-0.926-17.647-15.983-31.206-33.63-30.281-17.651 0.926-31.206 15.983-30.281 33.63 0.593 11.383 0.653 22.784 0.175 34.167-0.738 17.66 12.975 32.572 30.635 33.314zM341.333 544c0 41.237 33.429 74.667 74.667 74.667h192c41.237 0 74.667-33.429 74.667-74.667v-192c0-41.237-33.429-74.667-74.667-74.667h-192c-41.237 0-74.667 33.429-74.667 74.667v192zM416 554.667c-5.891 0-10.667-4.776-10.667-10.667v-192c0-5.892 4.776-10.667 10.667-10.667h192c5.892 0 10.667 4.774 10.667 10.667v192c0 5.891-4.774 10.667-10.667 10.667h-192z" />
<glyph unicode="&#xe94a;" glyph-name="loading-download" d="M298.667 817.504c64.861 37.448 138.436 57.162 213.333 57.162 17.673 0 32-14.327 32-32s-14.327-32-32-32c-63.663 0-126.201-16.757-181.333-48.588s-100.915-77.613-132.745-132.745c-31.831-55.132-48.588-117.67-48.588-181.333s16.757-126.199 48.588-181.333c31.831-55.134 77.613-100.915 132.745-132.745s117.67-48.589 181.333-48.589c63.663 0 126.199 16.759 181.333 48.589s100.915 77.611 132.745 132.745c8.836 15.305 28.407 20.548 43.712 11.712 15.309-8.836 20.553-28.407 11.716-43.712-37.449-64.862-91.311-118.724-156.173-156.173-64.862-37.444-138.436-57.161-213.333-57.161s-148.472 19.716-213.333 57.161c-64.861 37.449-118.723 91.311-156.171 156.173s-57.163 138.436-57.163 213.333c0 74.897 19.715 148.472 57.163 213.333s91.309 118.723 156.171 156.171zM341.333 544c0 41.237 33.429 74.667 74.667 74.667h192c41.237 0 74.667-33.429 74.667-74.667v-192c0-41.237-33.429-74.667-74.667-74.667h-192c-41.237 0-74.667 33.429-74.667 74.667v192zM416 554.667c-5.891 0-10.667-4.776-10.667-10.667v-192c0-5.892 4.776-10.667 10.667-10.667h192c5.892 0 10.667 4.774 10.667 10.667v192c0 5.891-4.774 10.667-10.667 10.667h-192z" />
<glyph unicode="&#xe94b;" glyph-name="Location" d="M512 629.333c-53.018 0-96-42.981-96-96s42.982-96 96-96 96 42.982 96 96c0 53.019-42.982 96-96 96zM352 533.333c0 88.366 71.634 160 160 160s160-71.634 160-160c0-88.367-71.633-160-160-160s-160 71.633-160 160zM512 800c-146.35 0-266.667-122.653-266.667-276.053 0-77.15 30.523-146.701 79.576-196.706 2.42-2.466 4.814-5.21 7.067-8.26l171.555-232.311c4.254-5.764 12.868-5.777 17.143-0.026l180.173 242.394 1.327 1.399c47.245 49.749 76.493 117.99 76.493 193.51 0 153.401-120.316 276.053-266.667 276.053zM181.333 523.947c0 186.865 147.119 340.053 330.667 340.053s330.667-153.188 330.667-340.053c0-91.584-35.255-174.912-92.727-236.143l-177.903-239.343c-29.914-40.243-90.202-40.149-119.987 0.188l-171.556 232.311c-0.287 0.388-0.696 0.879-1.27 1.463-60.518 61.687-97.89 147.226-97.89 241.523z" />
<glyph unicode="&#xe94c;" glyph-name="Lock" d="M159.995 480.085c0 41.237 33.429 74.666 74.667 74.666h554.693c41.237 0 74.667-33.428 74.667-74.666v-373.431c0-41.237-33.429-74.667-74.667-74.667h-554.693c-41.237 0-74.667 33.429-74.667 74.667v373.431zM234.662 490.752c-5.891 0-10.667-4.774-10.667-10.667v-373.431c0-5.892 4.776-10.667 10.667-10.667h554.693c5.892 0 10.667 4.774 10.667 10.667v373.431c0 5.892-4.774 10.667-10.667 10.667h-554.693zM287.995 640.026c0 123.706 100.284 223.991 223.992 223.991 123.703 0 223.987-100.284 223.987-223.991v-117.279c0-17.673-14.323-32-32-32-17.673 0-32 14.327-32 32v117.279c0 88.36-71.629 159.991-159.987 159.991-88.362 0-159.992-71.631-159.992-159.991v-117.279c0-17.673-14.327-32-32-32s-32 14.327-32 32v117.279zM575.974 323.243c0-35.349-28.655-64-64-64s-64 28.651-64 64c0 35.345 28.655 64 64 64s64-28.655 64-64zM513.847 320.26c17.673 0 32-14.327 32-32v-88.768c0-17.673-14.327-32-32-32s-32 14.327-32 32v88.768c0 17.673 14.327 32 32 32z" />
<glyph unicode="&#xe94d;" glyph-name="login-1" d="M627.985 493.385c0 17.673 14.327 32 32 32h165.265c17.673 0 32-14.327 32-32s-14.327-32-32-32h-165.265c-17.673 0-32 14.327-32 32zM721.801 586.326c12.821-12.164 13.355-32.418 1.19-45.239l-45.257-47.702 45.257-47.706c12.164-12.821 11.631-33.075-1.19-45.239s-33.075-11.631-45.239 1.19l-66.15 69.73c-11.712 12.343-11.712 31.701 0 44.049l66.15 69.727c12.164 12.821 32.418 13.354 45.239 1.19zM235.992 810.598c-10.604 0-19.2-8.596-19.2-19.2v-92.178c0-17.673-14.327-32-32-32s-32 14.327-32 32v92.178c0 45.95 37.25 83.2 83.2 83.2l388.2-0.001c45.948 0 83.196-37.25 83.196-83.2v-107.596c0-17.673-14.323-32-32-32-17.673 0-32 14.327-32 32v107.596c0 10.604-8.593 19.2-19.2 19.2l-388.196 0.001zM675.388 335.027c17.677 0 32-14.327 32-32v-107.657c0-45.948-37.248-83.2-83.2-83.2h-98.884c-17.673 0-32 14.327-32 32s14.327 32 32 32h98.884c10.607 0 19.2 8.597 19.2 19.2v107.657c0 17.673 14.327 32 32 32zM241.735 791.088c-12.373 3.9-24.972-5.339-24.972-18.312v-591.059c0-8.38 5.436-15.795 13.428-18.313l245.644-77.423c6.874-2.167 13.871 2.965 13.871 10.172v608.954c0 4.656-3.017 8.774-7.458 10.173v0l-240.514 75.808zM152.763 772.777c0 56.215 54.596 96.25 108.211 79.351l240.513-75.808c31.083-9.797 52.22-38.622 52.22-71.213v-608.954c0-50.449-48.994-86.379-97.109-71.215l-245.645 77.427c-34.636 10.914-58.19 43.034-58.19 79.351v591.059z" />
<glyph unicode="&#xe94e;" glyph-name="login" d="M605.077 415.983h-426.665c-17.673 0-32 14.327-32 32s14.327 32 32 32h426.665c17.677 0 32-14.327 32-32s-14.323-32-32-32zM454.447 598.609c12.497 12.497 32.759 12.497 45.257 0l121.967-121.967c15.829-15.829 15.829-41.493 0-57.323l-121.967-121.967c-12.497-12.497-32.759-12.497-45.257 0s-12.497 32.759 0 45.257l105.374 105.374-105.374 105.371c-12.497 12.497-12.497 32.758 0 45.255zM332.451 800c0 41.237 33.429 74.667 74.667 74.667h395.852c41.237 0 74.667-33.429 74.667-74.667v-704c0-41.237-33.429-74.667-74.667-74.667h-395.852c-41.237 0-74.667 33.429-74.667 74.667v154.667c0 17.673 14.327 32 32 32s32-14.327 32-32v-154.667c0-5.892 4.776-10.667 10.667-10.667h395.852c5.892 0 10.667 4.774 10.667 10.667v704c0 5.891-4.774 10.667-10.667 10.667h-395.852c-5.891 0-10.667-4.776-10.667-10.667v-154.667c0-17.673-14.327-32-32-32s-32 14.327-32 32v154.667z" />
<glyph unicode="&#xe94f;" glyph-name="logout-1" d="M601.617 493.385c0 17.673 14.327 32 32 32h165.265c17.673 0 32-14.327 32-32s-14.327-32-32-32h-165.265c-17.673 0-32 14.327-32 32zM737.062 586.33c12.821 12.164 33.079 11.631 45.239-1.19l66.155-69.726c11.712-12.348 11.712-31.706 0-44.049l-66.155-69.73c-12.16-12.821-32.418-13.355-45.239-1.19s-13.35 32.418-1.19 45.239l45.261 47.706-45.261 47.702c-12.16 12.821-11.631 33.075 1.19 45.239zM235.983 810.6c-10.604 0-19.2-8.596-19.2-19.2v-140.285c0-17.673-14.327-32-32-32s-32 14.327-32 32v140.285c0 45.95 37.25 83.2 83.2 83.2l388.196-0.001c45.952 0 83.2-37.25 83.2-83.2v-107.596c0-17.673-14.327-32-32-32s-32 14.327-32 32v107.596c0 10.604-8.593 19.2-19.2 19.2l-388.197 0.001zM675.379 335.027c17.673 0 32-14.327 32-32v-107.652c0-45.952-37.248-83.2-83.2-83.2h-96.235c-17.673 0-32 14.323-32 32 0 17.673 14.327 32 32 32h96.235c10.607 0 19.2 8.593 19.2 19.2v107.652c0 17.673 14.327 32 32 32zM241.726 791.090c-12.373 3.9-24.972-5.339-24.972-18.312v-591.061c0-8.38 5.435-15.791 13.428-18.313l245.645-77.423c6.874-2.167 13.871 2.965 13.871 10.172v608.956c0 4.656-3.021 8.774-7.458 10.173v0l-240.514 75.808zM152.754 772.778c0 56.215 54.596 96.251 108.211 79.352l240.514-75.808c31.083-9.797 52.22-38.623 52.22-71.213v-608.956c0-50.449-48.994-86.379-97.109-71.211l-245.646 77.423c-34.636 10.918-58.189 43.038-58.189 79.351v591.061z" />
<glyph unicode="&#xe950;" glyph-name="logout" d="M888.303 416.017h-426.667c-17.673 0-32 14.327-32 32 0 17.677 14.327 32 32 32h426.667c17.673 0 32-14.323 32-32 0-17.673-14.327-32-32-32zM737.673 598.646c12.497 12.497 32.759 12.497 45.257 0l121.967-121.966c15.829-15.829 15.829-41.493 0-57.323l-121.967-121.967c-12.497-12.497-32.759-12.497-45.252 0-12.497 12.497-12.497 32.759 0 45.257l105.37 105.37-105.37 105.374c-12.497 12.497-12.497 32.758-0.004 45.255zM616.887 810.668h-395.854c-5.891 0-10.667-4.775-10.667-10.667v-704c0-5.892 4.776-10.667 10.667-10.667h395.854c5.888 0 10.667 4.774 10.667 10.667v154.667c0 17.673 14.323 32 32 32 17.673 0 32-14.327 32-32v-154.667c0-41.237-33.429-74.667-74.667-74.667h-395.854c-41.237 0-74.667 33.429-74.667 74.667v704c0 41.237 33.429 74.667 74.667 74.667h395.854c41.237 0 74.667-33.43 74.667-74.667v-154.667c0-17.673-14.327-32-32-32-17.677 0-32 14.327-32 32v154.667c0 5.891-4.779 10.667-10.667 10.667z" />
<glyph unicode="&#xe951;" glyph-name="Love" d="M815.462 679.399c-64.691 64.691-169.579 64.691-234.27 0l-42.876-42.879c-14.545-14.545-38.127-14.545-52.672 0l-42.88 42.879c-64.691 64.691-169.576 64.691-234.267 0s-64.691-169.575 0-234.266l303.481-303.484 303.484 303.484c64.691 64.691 64.691 169.575 0 234.266zM535.94 724.654c89.685 89.685 235.093 89.685 324.774 0 89.685-89.684 89.685-235.092 0-324.777l-307.567-307.567c-22.737-22.737-59.601-22.737-82.334 0l-307.571 307.567c-89.684 89.685-89.685 235.092 0 324.777s235.092 89.685 324.779 0l23.957-23.959 23.962 23.959z" />
<glyph unicode="&#xe952;" glyph-name="mail-outline" d="M176 736c-26.51 0-48-21.49-48-48v-480c0-26.509 21.49-48 48-48h672c26.509 0 48 21.491 48 48v480c0 26.51-21.491 48-48 48h-672zM64 688c0 61.856 50.144 112 112 112h672c61.854 0 112-50.144 112-112v-480c0-61.854-50.146-112-112-112h-672c-61.856 0-112 50.146-112 112v480zM198.74 659.646c10.85 13.95 30.955 16.463 44.905 5.613l268.355-208.721 268.352 208.721c13.952 10.851 34.057 8.337 44.907-5.613s8.337-34.055-5.615-44.905l-288-224c-11.554-8.99-27.733-8.99-39.292 0l-287.999 224c-13.95 10.85-16.463 30.955-5.613 44.905z" />
<glyph unicode="&#xe953;" glyph-name="megaohone" d="M904.777 812.642c7.915-6.054 12.557-15.45 12.557-25.415v-582.247c0-9.967-4.642-19.362-12.557-25.417s-18.197-8.077-27.814-5.47l-128 34.692c-13.948 3.78-23.629 16.435-23.629 30.886v471.036l-386.296-104.698c-17.058-4.623-34.633 5.457-39.257 22.515s5.457 34.634 22.515 39.257l554.667 150.332c9.617 2.607 19.9 0.584 27.814-5.471zM789.333 728.053v-463.9l64-17.348v498.594l-64-17.346zM195.793 638.246c11.029-13.809 8.775-33.945-5.035-44.974-12.302-9.825-20.091-24.848-20.091-41.711v-110.918c0-29.457 23.878-53.333 53.333-53.333h74.667v70.212c0 17.673 14.327 32 32 32s32-14.327 32-32v-77.73l125.705-34.069c17.058-4.625 27.136-22.199 22.515-39.258-4.625-17.058-22.199-27.14-39.258-22.515l-145.222 39.36h-102.407c-64.801 0-117.333 52.531-117.333 117.333v110.918c0 37.146 17.298 70.272 44.152 91.719 13.809 11.029 33.945 8.774 44.974-5.035zM171.214 390.916c16.766 5.589 34.889-3.469 40.477-20.237l78.040-234.121h81.871l-71.293 213.884c-5.589 16.764 3.472 34.889 20.239 40.474 16.766 5.589 34.889-3.469 40.477-20.237l85.333-256c3.251-9.758 1.617-20.484-4.399-28.83-6.012-8.346-15.673-13.291-25.959-13.291h-149.333c-13.774 0-26.002 8.815-30.358 21.884l-85.333 256c-5.589 16.764 3.472 34.889 20.239 40.474zM126.706 833.312c12.497 12.497 32.758 12.497 45.255 0l725.332-725.332c12.497-12.497 12.497-32.759 0-45.257s-32.755-12.497-45.252 0l-725.335 725.333c-12.497 12.497-12.497 32.758 0 45.255z" />
<glyph unicode="&#xe954;" glyph-name="megaphone-full-bar" d="M667.196 760.866c8.085-6.041 12.847-15.541 12.847-25.633v-477.219c0-10.091-4.762-19.593-12.847-25.634s-18.543-7.915-28.22-5.052l-359.766 106.287h-76.463c-64.801 0-117.333 52.535-117.333 117.333v91.349c0 64.801 52.532 117.333 117.333 117.333h76.463l359.766 106.291c9.677 2.86 20.134 0.986 28.22-5.055zM251.838 595.631h-49.091c-29.455 0-53.333-23.878-53.333-53.333v-91.349c0-29.453 23.878-53.333 53.333-53.333h49.091v198.016zM315.838 389.53l300.204-88.691v391.573l-300.204-88.694v-214.188zM740.779 645.681c14.298 10.383 34.313 7.207 44.693-7.094 61.47-84.664 61.47-199.27 0-283.937-10.381-14.298-30.396-17.476-44.693-7.091-14.302 10.381-17.481 30.391-7.095 44.693 45.188 62.242 45.188 146.493 0 208.734-10.385 14.301-7.206 34.312 7.095 44.695zM849.681 693.075c15.603 8.297 34.982 2.372 43.277-13.233 60.907-114.556 60.907-251.887 0-366.442-8.294-15.607-27.674-21.53-43.277-13.235-15.603 8.299-21.53 27.674-13.231 43.277 50.914 95.774 50.914 210.586 0 306.357-8.299 15.604-2.372 34.98 13.231 43.277zM141.67 409.63c16.766 5.585 34.888-3.477 40.476-20.241l65.526-196.621h59.72l-51.669 151.898c-5.691 16.734 3.259 34.91 19.99 40.602s34.909-3.26 40.601-19.989l66.059-194.202c3.324-9.771 1.731-20.548-4.278-28.937-6.009-8.393-15.696-13.372-26.017-13.372h-127.471c-13.775 0-26.004 8.815-30.359 21.884l-72.819 218.5c-5.588 16.768 3.474 34.889 20.241 40.478z" />
</font>
</defs>
</svg>
